1 сезон

3 сезон

iTunes

1

iTunes

MVO

iTunes

13

1 сезон

RePack

30

Deluxe

pack

Лицензия

ВАЖНО

ИГРА 18+

pack

RePack

MK11

RePack

jed

RePack

fifa19

RePack

RDR2

RePack

NEED FOR SPEED™ PAYBACK

4 сезон

9 сезон

Бесстыжие 9 сезон

Все сериалы

все сериалы на PB.wtf

RePack

FAR CRY 5

Anonymous, доброй ночи, мы катастрофически не успеваем собрать деньги на оплату серверов, помогите нам пожалуйста 5,10,15р., для нас важна любая помощь . В качестве благодарности мы отключим Вам всю рекламу на сайте (укажите свой ник в строку Ваше имя)!

×
  
Magnet ссылка

Приключения Тинтина: Тайна Единорога / The Adventures of Tintin (Стивен Спилберг / Steven Spielberg) [2011, США, Новая Зеландия, мультфильм, боевик, детектив, приключения, семейны, DVD9] DUB Sub Rus + Original Eng pb.wtf

Приключения Тинтина: Тайна Единорога через торрент pb.wtf

Размер: 6.23 GB | Добавлен: 9 лет 5 мес. назад | Торрент скачан:162 раза
Скачать  

26-02-2012 19:25 Приключения Тинтина: Тайна Единорога Скачать торрент  

[font="Georgia"]
Приключения Тинтина: Тайна Единорога / The Adventures of Tintin
«This year, discover how far adventure will take you.»
Страна: США, Новая Зеландия
Студия: Amblin Entertainment, Columbia Pictures, Hemisphere Media Capital, Nickelodeon Movies, Paramount Pictures, The Kennedy/Marshall Company, WingNut Films
Жанр: мультфильм, боевик, детектив, приключения, семейный
Год выпуска: 2011
Мировая премьера: 23 октября 2011
Российская премьера: 3 ноября 2011
Дата выхода DVD: 20 марта 2012
Дата выхода Blu-Ray: 27 марта 2012
Продолжительность: 01:42:29
Перевод: Профессиональный (дублированный)
Cубтитры: русские, английские
Оригинальная аудиодорожка: английский
Режиссер: Стивен Спилберг / Steven Spielberg
Роли озвучивали: Джейми Белл, Энди Серкис, Дэниэл Крэйг, Саймон Пегг, Кэри Элвис, Тоби Джонс, Ник Фрост, Себастьян Роше, Маккензи Крук, Тони Карран
Роли дублировали: Филипп Бледный, Сергей Чихачев, Никита Прозоровский, Александр Новиков, Андрей Чубченко
Описание: Главный герой — молодой газетный репортёр Тинтин. Благодаря своей профессии он путешествует по всему миру и становится участником увлекательных приключений.

Бонусы: Смотрите на DVD

Качество: DVD9
Формат: DVD-Video
Видео кодек: MPEG2
Аудио кодек: AC3
Видео: PAL 16:9 (720x576(0.723)) MPEG Video, 25,000 кадр/сек, 7500 Кбит/сек
Аудио #1: Russian (Dolby AC3, 6 ch) 448 Кбит/сек, 48,0 КГц
Аудио #2: English (Dolby AC3, 6 ch) 448 Кбит/сек, 48,0 КГц



Title:
Size: 6.23 Gb ( 6 527 410 KBytes ) - DVD-9
Enabled regions: 1, 2, 3, 4, 5, 6, 7, 8

VTS_01 :
Play Length: 00:00:23
Video: PAL 16:9 (720x576) VBR, Auto Pan&Scan

VTS_02 :
Play Length: 01:42:29
Video: PAL 16:9 (720x576) VBR, Auto Pan&Scan
Audio:
Russian (Dolby AC3, 6 ch)
English (Dolby AC3, 6 ch)
Subtitles:
Russian
English

VTS_03 :
Play Length: 00:00:52
Video: PAL 16:9 (720x576) VBR, Auto Pan&Scan
Audio:
Russian (Dolby AC3, 2 ch)

Menu Video:
PAL 16:9 (720x576) VBR
Auto Pan&Scan
Menu Subtitles:
Not specified
Menu English Language Unit :
Root Menu
Общее
Полное имя : G:\Новинки 2012\Prikljuchenija.Tintina.Tajna.Edinoroga.2011.D.DVD9\VIDEO_TS\VTS_02_1.VOB
Формат : MPEG-PS
Размер файла : 1000 Мбайт
Продолжительность : 16 м.
Общий поток : 8548 Кбит/сек

Видео
Идентификатор : 224 (0xE0)
Формат : MPEG Video
Версия формата : Version 2
Профиль формата : Main@Main
Параметр BVOP формата : Да
Параметр матрицы формата : Выборочная
Продолжительность : 16 м.
Битрейт : 7500 Кбит/сек
Ширина : 720 пикселей
Высота : 576 пикселей
Соотношение сторон : 16:9
Частота кадров : 25,000 кадров/сек
Стандарт вещания : PAL
Цветовое пространство : YUV
Субдискретизация насыщенности : 4:2:0
Битовая глубина : 8 бит
Тип развёртки : Чересстрочная
Порядок развёртки : Верхнее поле первое
Метод сжатия : С потерями
Бит/(Пиксели*Кадры) : 0.723
Размер потока : 876 Мбайт (88%)

Аудио #1
Идентификатор : 189 (0xBD)-128 (0x80)
Формат : AC-3
Формат/Информация : Audio Coding 3
Расширение режима : CM (complete main)
Режим смешивания : DVD-Video
Продолжительность : 16 м.
Вид битрейта : Постоянный
Битрейт : 448 Кбит/сек
Каналы : 6 каналов
Расположение каналов : Front: L C R, Side: L R, LFE
Частота : 48,0 КГц
Битовая глубина : 16 бит
Метод сжатия : С потерями
Размер потока : 52,4 Мбайт (5%)

Аудио #2
Идентификатор : 189 (0xBD)-129 (0x81)
Формат : AC-3
Формат/Информация : Audio Coding 3
Расширение режима : CM (complete main)
Режим смешивания : DVD-Video
Продолжительность : 16 м.
Вид битрейта : Постоянный
Битрейт : 448 Кбит/сек
Каналы : 6 каналов
Расположение каналов : Front: L C R, Side: L R, LFE
Частота : 48,0 КГц
Битовая глубина : 16 бит
Метод сжатия : С потерями
Размер потока : 52,4 Мбайт (5%)

Текст #1
Идентификатор : 189 (0xBD)-32 (0x20)
Формат : RLE
Формат/Информация : Run-length encoding
Режим смешивания : DVD-Video

Текст #2
Идентификатор : 189 (0xBD)-33 (0x21)
Формат : RLE
Формат/Информация : Run-length encoding
Режим смешивания : DVD-Video




pb.wtf



Скачать Приключения Тинтина: Тайна Единорога через торрент http://i1.imageban.ru/out/2012/02/26/8898b32119c9c716c2f1f6eeb6a34541.jpg Скачать фильм Приключения Тинтина: Тайна Единорога через торрент бесплантно в хорошем качестве Описание: Главный герой — молодой газетный репортёр Тинтин. Благодаря своей профессии он путешествует по всему миру и становится участником ... 4.9 10 18
Info! Золотая раздача, скачанное не засчитывается.
Торрент: Зарегистрирован [2012-02-26 19:25] · скачан: 162 раз
Статус: √ проверено
Размер: 6.23 GB
Как cкачать? Как скачать Приключения Тинтина: Тайна Единорога через торрент | UTorrent

28-11-2019 20:33  

Отключить всю рекламу на сайте

26-02-2012 20:03 Приключения Тинтина: Тайна Единорога Скачать торрент  

а можно в DVD 5???pb.wtf



27-02-2012 06:25 Приключения Тинтина: Тайна Единорога Скачать торрент  

bassjumper писал(а):

а можно в DVD 5???

Ага тоже поддерживаю!!! DVD 5 охота!!!!!pb.wtf



    Дорогой пользователь! Огромная просьба, поблагодарите релизера, оцените раздачу и оставьте свои комментарий, если Вы скачали Приключения Тинтина: Тайна Единорога через торрент бесплатно! Внесите свою лепту в развитие PiratBit!
    Комментировать посты могут только пользователи прошедшие не сложную регистрацию
    Показать сообщения:    

    Приключения Тинтина: Тайна Единорога через торрент
    Скачать бесплатно Приключения Тинтина: Тайна Единорога
    Приключения Тинтина: Тайна Единорога скачать торрент
    Приключения Тинтина: Тайна Единорога смотреть онлайн
    Cкачать фильм Приключения Тинтина: Тайна Единорога бесплатно
    Приключения Тинтина: Тайна Единорога скачать торрент в хорошем качестве
    Приключения Тинтина: Тайна Единорога смотреть онлайн бесплатно в хорошем качестве


    Вы не можете начинать темы
    Вы не можете отвечать на сообщения
    Вы не можете редактировать свои сообщения
    Вы не можете удалять свои сообщения
    Вы не можете голосовать в опросах
    Вы не можете прикреплять файлы к сообщениям
    Вы можете скачивать файлы