1 сезон

3 сезон

iTunes

1

Line

MVO

iTunes

13

1 сезон

RePack

30

Deluxe

pack

Лицензия

ВАЖНО

ИГРА 18+

pack

RePack

MK11

RePack

jed

RePack

fifa19

RePack

RDR2

RePack

NEED FOR SPEED™ PAYBACK

4 сезон

9 сезон

Бесстыжие 9 сезон

Все сериалы

все сериалы на PB.wtf

RePack

FAR CRY 5

Anonymous, доброй ночи, мы катастрофически не успеваем собрать деньги на оплату серверов, помогите нам пожалуйста 5,10,15р., для нас важна любая помощь . В качестве благодарности мы отключим Вам всю рекламу на сайте (укажите свой ник в строку Ваше имя)!

×
  
Magnet ссылка

Боец из трущоб / Gutter King (Кейт Алан Моррис) [2010 г., боевик, триллер, драма, DVD5] pb.wtf

Боец из трущоб через торрент pb.wtf

Размер: 4.27 GB | Добавлен: 9 лет 5 мес. назад | Торрент скачан:124 раза
Скачать  

26-02-2012 20:36 Боец из трущоб Скачать торрент  

Боец из трущоб / Gutter King

Год выпуска: 2010
Страна: США
Жанр: боевик, триллер, драма
Продолжительность: 01:33:20
Перевод: Профессиональный (многоголосый, закадровый) [Лицензия]

Режиссер: Кейт Алан Моррис



В ролях: Зеб Халсел, Кэйси Кларк, Эрика Рамирез, Блейк Логан, Пол Алесси, Рид Арнольд, Джузеппе Багери, Дэррил Болдуин, Франсин Хэнсон, Артур Л. Брэдди III

Описание: История о подростке, ставшим настоящим королем улиц. Никто не мог справиться с юным головорезом Уиллом, пока его отчим не решил направить энергию и силу пасынка в правильном направлении. Под чутким руководством отчима Уилл стал звездой уличных боев. Но однажды сводный брат решил отомстить ему за украденную любовь отца...

Качество: DVD5
Формат: DVD Video
Видео кодек: MPEG2
Аудио кодек: AC3
Видео: MPEG 2, 720x576 (16:9), 25.000 fps, 8 000 Kbps (0.505 bit/pixel)
Аудио#1: Russian, AC-3, 48.0 KHz, 6 ch, 384 Kbps, CBR
Аудио#2: Russian, AC-3, 48.0 KHz, 2 ch, 192 Kbps, CBR
Аудио#3: English, AC-3, 48.0 KHz, 2 ch, 192 Kbps, CBR
Субтитры: Русские
Релиз от:
скриншот  скриншот  скриншот  скриншот  
скриншот  скриншот  скриншот  скриншот  
скриншот  скриншот  скриншот  скриншот  
Общее
Полное имя : F:\Boec.iz.truwob.2010.P.DVD-5\VTS_02_1.VOB
Формат : MPEG-PS
Размер файла : 1024 Мбайт
Продолжительность : 23 м.
Режим общего битрейта : Переменный
Общий поток : 6131 Кбит/сек

Видео
Идентификатор : 224 (0xE0)
Формат : MPEG Video
Версия формата : Version 2
Профиль формата : Main@Main
Параметр BVOP формата : Да
Параметр матрицы формата : Выборочная
Параметр GOP формата : M=3, N=12
Продолжительность : 23 м.
Вид битрейта : Переменный
Битрейт : 5241 Кбит/сек
Максимальный битрейт : 8000 Кбит/сек
Ширина : 720 пикселей
Высота : 576 пикселей
Соотношение сторон : 16:9
Частота кадров : 25,000 кадров/сек
Стандарт вещания : PAL
Цветовое пространство : YUV
Субдискретизация насыщенности : 4:2:0
Битовая глубина : 8 бит
Тип развёртки : Чересстрочная
Порядок развёртки : Верхнее поле первое
Метод сжатия : С потерями
Бит/(Пиксели*Кадры) : 0.506
Размер потока : 875 Мбайт (85%)
Основные цвета : BT.470-2 System B, BT.470-2 System G
Характеристики трансфера : BT.470-2 System B, BT.470-2 System G
Коэффициенты матрицы : SMPTE 170M

Аудио #1
Идентификатор : 189 (0xBD)-128 (0x80)
Формат : AC-3
Формат/Информация : Audio Coding 3
Расширение режима : CM (complete main)
Режим смешивания : DVD-Video
Продолжительность : 23 м.
Вид битрейта : Постоянный
Битрейт : 384 Кбит/сек
Каналы : 6 каналов
Расположение каналов : Front: L C R, Side: L R, LFE
Частота : 48,0 КГц
Битовая глубина : 16 бит
Метод сжатия : С потерями
Размер потока : 64,1 Мбайт (6%)

Аудио #2
Идентификатор : 189 (0xBD)-129 (0x81)
Формат : AC-3
Формат/Информация : Audio Coding 3
Расширение режима : CM (complete main)
Режим смешивания : DVD-Video
Продолжительность : 23 м.
Вид битрейта : Постоянный
Битрейт : 192 Кбит/сек
Каналы : 2 канала
Расположение каналов : Front: L R
Частота : 48,0 КГц
Битовая глубина : 16 бит
Метод сжатия : С потерями
Размер потока : 32,1 Мбайт (3%)

Аудио #3
Идентификатор : 189 (0xBD)-130 (0x82)
Формат : AC-3
Формат/Информация : Audio Coding 3
Расширение режима : CM (complete main)
Режим смешивания : DVD-Video
Продолжительность : 23 м.
Вид битрейта : Постоянный
Битрейт : 192 Кбит/сек
Каналы : 2 канала
Расположение каналов : Front: L R
Частота : 48,0 КГц
Битовая глубина : 16 бит
Метод сжатия : С потерями
Размер потока : 32,1 Мбайт (3%)

Текст
Идентификатор : 189 (0xBD)-32 (0x20)
Формат : RLE
Формат/Информация : Run-length encoding
Режим смешивания : DVD-Video
Продолжительность : 23 м.
Задержка видео : 480 мс.

Меню
Title: Boec.iz.truwob.2010.P.DVD-5
Size: 4.27 Gb ( 4 476 428,00 KBytes ) - DVD-5
Enabled regions: 5

VTS_01 :
Play Length: 00:00:20+{00:00:20}+{00:00:20}
Video: PAL 4:3 (720x576) VBR
Audio:
Russian, AC3, 2/0 (L,R) ch, 192 kbps, Delay 0 mSec
English,
English,


VTS_02 :
Play Length: 01:33:20
Video: PAL 16:9 (720x576) VBR, Auto Pan&Scan, Auto Letterboxed
Audio:
Russian (Dolby AC3, 6 ch)
Russian (Dolby AC3, 2 ch)
English (Dolby AC3, 2 ch)
Subtitles:
Russian

* Menus Information *

VIDEO_TS Menu
Video:
PAL 4:3 (720x576) VBR
English Language Unit :
Title Menu

VTS_01 Menu
Video:
PAL 4:3 (720x576) VBR
Audio:
Not specified (Dolby AC3, 2 ch)
English Language Unit :
Root Menu
Chapter (PTT) Menu

VTS_02 Menu
Video:
PAL 4:3 (720x576) VBR
English Language Unit :
Root Menu
Subpicture Menu
Audio Menu
Chapter (PTT) Menu
pb.wtf



Скачать Боец из трущоб через торрент https://pic1.kartinco.top/images/2011/kthdpftl1v.png Скачать фильм Боец из трущоб через торрент бесплантно в хорошем качестве Описание: История о подростке, ставшим настоящим королем улиц. Никто не мог справиться с юным головорезом Уиллом, пока его отчим не решил ... 4.3 10 11
Info! Золотая раздача, скачанное не засчитывается.
Торрент: Зарегистрирован [2012-02-26 20:36] · скачан: 124 раз
Статус: √ проверено
Размер: 4.27 GB
Как cкачать? Как скачать Боец из трущоб через торрент | UTorrent

% Раздел Тема Автор DL S | L
Фильмы 2010 [ 745 MB ] Боец из трущоб / Gutter King [2010 BDRip] MVO Ворон Скачать
1 | 0
Фильмы 2010 [ 1.46 GB ] Боец из трущоб / Gutter King [2010 BDRip] MVO + Original + Sub Ворон Скачать
1 | 0
Фильмы 2010 [ 1.45 GB ] Боец из трущоб / Gutter King [2010 BDRip + Оригинал] bogyn Скачать
1 | 0

28-11-2019 20:33  

Отключить всю рекламу на сайте

27-02-2012 10:49 Боец из трущоб Скачать торрент  

спасибо-- друг,брат,товарищ,гражданин,милиционер,поли.........ну и так далее.СПАСИБО за раздачуpb.wtf



27-02-2012 10:53 Боец из трущоб Скачать торрент  

Можно посмотреть один разpb.wtf



    Дорогой пользователь! Огромная просьба, поблагодарите релизера, оцените раздачу и оставьте свои комментарий, если Вы скачали Боец из трущоб через торрент бесплатно! Внесите свою лепту в развитие PiratBit!
    Комментировать посты могут только пользователи прошедшие не сложную регистрацию
    Показать сообщения:    

    Боец из трущоб через торрент
    Скачать бесплатно Боец из трущоб
    Боец из трущоб скачать торрент
    Боец из трущоб смотреть онлайн
    Cкачать фильм Боец из трущоб бесплатно
    Боец из трущоб скачать торрент в хорошем качестве
    Боец из трущоб смотреть онлайн бесплатно в хорошем качестве


    Вы не можете начинать темы
    Вы не можете отвечать на сообщения
    Вы не можете редактировать свои сообщения
    Вы не можете удалять свои сообщения
    Вы не можете голосовать в опросах
    Вы не можете прикреплять файлы к сообщениям
    Вы можете скачивать файлы