Ссылка на приватное зеркало нашего сайта всего за 1$. Внимание количество ограничено!!!

2 сезон

iTunes

1 сезон

1

iTunes

iTunes

iTunes

1 сезон

RePack

30

ИГРА 18+

pack

ВАЖНО

!!Акция!!

Alien_RageХит недели

RePack

MK11
pack

Забери бонус

RePack

jed

!!Акция!!

Alien_Rage

RePack

fifa19

RePack

Assassins Creed: Odyssey

RePack

NEED FOR SPEED™ PAYBACK

4 сезон

9 сезон

Бесстыжие 9 сезон

Все сериалы

все сериалы на PB.wtf

RePack

FAR CRY 5
  

Тайна в его глазах / El secreto de sus ojos (Хуан Хосе Кампанелла / Juan Jose Campanella) [2009 г., Триллер, драма, криминал, детектив BDRip (720p), лицензия] pb.wtf

Тайна в его глазах через торрент pb.wtf

Размер: 5.52 GB | Добавлен: 8 лет 8 мес. назад | Торрент скачан:12 раз
Скачать  

27-02-2012 16:38 Тайна в его глазах Скачать торрент  

Тайна в его глазах / El secreto de sus ojos

[font=serif]Год выпуска: 2009
Страна: Испания, Аргентина
Жанр: Триллер, драма, криминал, детектив
Продолжительность: 02:09:15
Перевод: Профессиональный многоголосый [лицензия]
Перевод: Профессиональный многоголосый [лицензия]
Перевод 2: Одноголосый закадровый [Сербин]
Перевод 3: Одноголосый закадровый [Доцент]

Тип релиза: Лицензия

Режиссер: Хуан Хосе Кампанелла / Juan Jose Campanella

В ролях: Рикардо Дарин, Соледад Вилламил, Пабло Раго, Хавьер Годино, Гильермо Франселла, Хосе Луис Джиоиа, Карла Кьюведо, Барбара Палладино, Марио Аларкон

Описание: Бенджамин Эспозито - судебный служащий, который решает написать роман об одном уголовном деле, в котором он был свидетелем и главным действующим лицом..

Качество: BDRip (720p)
Формат: MKV
Видео кодек: Другой MPEG4
Аудио кодек: AC3
Видео: 1280х544, 23,976 fps, 4185 kbps avg, 0.275 bit/pixel
Аудио#1: Аудио: AC3, 448 kb/s, 5.1, 48 kHz, 16 bits [MVO]
Аудио#2: Аудио 2: AC3, 448 kb/s, 5.1, 48 kHz, 16 bits [Сербин]
Аудио#3: Аудио 3: AC3, 448 kb/s, 5.1, 48 kHz, 16 bits [Доцент]
Аудио#4: Аудио 4: AC3, 640 kb/s, 5.1, 48 kHz, 16 bits [SPA]
Cубтитры: русские, английские


E:\Для Торннтов\The.Secret.in.Their.Eyes.2009.P.BDRip.720p.IRONCLUB.mkv
General
Unique ID : 213212877974942600309146505082769647837 (0xA0674E7EC912F683BDD00E69E8FA28DD)
Complete name : E:\Для Торннтов\The.Secret.in.Their.Eyes.2009.P.BDRip.720p.IRONCLUB.mkv
Format : Matroska
File size : 5.52 GiB
Duration : 2h 9mn
Overall bit rate : 6 109 Kbps
Movie name : IRONCLUB
Encoded date : UTC 2012-01-05 13:43:23
Writing application : mkvmerge v5.2.0 ('I can't explain') built on Dec 18 2011 18:12:03
Writing library : libebml v1.2.3 + libmatroska v1.3.0
Attachment : Yes / Yes / Yes
Video #1
ID : 1
Format : AVC
Format/Info : Advanced Video Codec
Format profile : High@L4.1
Format settings, CABAC : Yes
Format settings, ReFrames : 7 frames
Codec ID : V_MPEG4/ISO/AVC
Duration : 2h 9mn
Bit rate : 4 124 Kbps
Width : 1 280 pixels
Height : 544 pixels
Display aspect ratio : 2.35:1
Frame rate : 23.976 fps
Color space : YUV
Chroma subsampling : 4:2:0
Bit depth : 8 bits
Scan type : Progressive
Bits/(Pixel*Frame) : 0.247
Stream size : 3.61 GiB (66%)
Title : The.Secret.in.Their.Eyes.2009.BluRay.720p.AC3.x264-ESiR
Writing library : x264 core 104 r1677 19df41a
Encoding settings : cabac=1 / ref=8 / deblock=1:-3:-3 / analyse=0x3:0x133 / me=tesa / subme=10 / psy=1 / psy_rd=1.20:0.00 / mixed_ref=1 / me_range=24 / chroma_me=1 / trellis=2 / 8x8dct=1 / cqm=0 / deadzone=21,11 / fast_pskip=0 / chroma_qp_offset=-2 / threads=6 / sliced_threads=0 / nr=0 / decimate=0 / interlaced=0 / constrained_intra=0 / bframes=6 / b_pyramid=1 / b_adapt=2 / b_bias=0 / direct=3 / weightb=1 / open_gop=0 / weightp=2 / keyint=250 / keyint_min=23 / scenecut=40 / intra_refresh=0 / rc=2pass / mbtree=0 / bitrate=4124 / ratetol=1.0 / qcomp=0.60 / qpmin=10 / qpmax=30 / qpstep=4 / cplxblur=20.0 / qblur=0.5 / ip_ratio=1.40 / pb_ratio=1.30 / aq=1:0.70
Language : Spanish
Audio #2
ID : 2
Format : AC-3
Format/Info : Audio Coding 3
Mode extension : CM (complete main)
Codec ID : A_AC3
Duration : 2h 9mn
Bit rate mode : Constant
Bit rate : 448 Kbps
Channel(s) : 6 channels
Channel positions : Front: L C R, Side: L R, LFE
Sampling rate : 48.0 KHz
Bit depth : 16 bits
Compression mode : Lossy
Stream size : 414 MiB (7%)
Title : MVO R5
Language : Russian
Audio #3
ID : 3
Format : AC-3
Format/Info : Audio Coding 3
Mode extension : CM (complete main)
Codec ID : A_AC3
Duration : 2h 9mn
Bit rate mode : Constant
Bit rate : 448 Kbps
Channel(s) : 6 channels
Channel positions : Front: L C R, Side: L R, LFE
Sampling rate : 48.0 KHz
Bit depth : 16 bits
Compression mode : Lossy
Stream size : 414 MiB (7%)
Title : VO Сербин
Language : Russian
Audio #4
ID : 4
Format : AC-3
Format/Info : Audio Coding 3
Mode extension : CM (complete main)
Codec ID : A_AC3
Duration : 2h 9mn
Bit rate mode : Constant
Bit rate : 448 Kbps
Channel(s) : 6 channels
Channel positions : Front: L C R, Side: L R, LFE
Sampling rate : 48.0 KHz
Bit depth : 16 bits
Compression mode : Lossy
Stream size : 414 MiB (7%)
Title : VO Доцент
Language : Russian
Audio #5
ID : 5
Format : AC-3
Format/Info : Audio Coding 3
Mode extension : CM (complete main)
Codec ID : A_AC3
Duration : 2h 9mn
Bit rate mode : Constant
Bit rate : 640 Kbps
Channel(s) : 6 channels
Channel positions : Front: L C R, Side: L R, LFE
Sampling rate : 48.0 KHz
Bit depth : 16 bits
Compression mode : Lossy
Stream size : 592 MiB (10%)
Title : Original
Language : Spanish
Text #6
ID : 6
Format : UTF-8
Codec ID : S_TEXT/UTF8
Codec ID/Info : UTF-8 Plain Text
Title : Russian
Language : Russian
Text #7
ID : 7
Format : UTF-8
Codec ID : S_TEXT/UTF8
Codec ID/Info : UTF-8 Plain Text
Title : English
Language : English
pb.wtf



Скачать Тайна в его глазах через торрент http://piratpic.net/images/21298281242916803156.png Скачать фильм Тайна в его глазах через торрент бесплантно в хорошем качестве Описание: Бенджамин Эспозито - судебный служащий, который решает написать роман об одном уголовном деле, в котором он был свидетелем и ... 5 10 3
Info! Золотая раздача, скачанное не засчитывается.
Торрент: Зарегистрирован [2012-02-27 16:38] · скачан: 12 раз
Статус: √ проверено
Размер: 5.52 GB
Как cкачать? Как скачать Тайна в его глазах через торрент | qTorrent

% Раздел Тема Автор DL S | L
Фильмы 2009 [ 2.18 GB ] Тайна в его глазах / El secreto de sus ojos [2009 BDRip-AVC] MVO [] potroks Скачать
1 | 0
Фильмы (Blu-ray, BD-Remux, HDDVD) [ 30.23 GB ] Тайна в его глазах / El secreto de sus ojos [2009 BDRemux лицензия] кэп Скачать
1 | 0
Фильмы 2009 [ 2.05 GB ] Тайна в его глазах / El secreto de sus ojos [2009 HDRip лицензия] Чупачупсик Скачать
1 | 0

28-11-2019 20:33  

Отключить всю рекламу на сайте

27-02-2012 16:42 Тайна в его глазах Скачать торрент  

Особая благодарность выражается группе IRONCLUBpb.wtf



    Дорогой пользователь! Огромная просьба, поблагодарите релизера, оцените раздачу и оставьте свои комментарий, если Вы скачали Тайна в его глазах через торрент бесплатно! Внесите свою лепту в развитие PiratBit!
    Комментировать посты могут только пользователи прошедшие не сложную регистрацию
    Показать сообщения:    

    Тайна в его глазах через торрент
    Скачать бесплатно Тайна в его глазах
    Тайна в его глазах скачать торрент
    Тайна в его глазах смотреть онлайн
    Cкачать фильм Тайна в его глазах бесплатно
    Тайна в его глазах скачать торрент в хорошем качестве
    Тайна в его глазах смотреть онлайн бесплатно в хорошем качестве


    Вы не можете начинать темы
    Вы не можете отвечать на сообщения
    Вы не можете редактировать свои сообщения
    Вы не можете удалять свои сообщения
    Вы не можете голосовать в опросах
    Вы не можете прикреплять файлы к сообщениям
    Вы можете скачивать файлы