1 сезон

3 сезон

iTunes

1

iTunes

MVO

iTunes

13

1 сезон

RePack

30

Deluxe

pack

Лицензия

ВАЖНО

ИГРА 18+

pack

RePack

MK11

RePack

jed

RePack

fifa19

RePack

RDR2

RePack

NEED FOR SPEED™ PAYBACK

4 сезон

9 сезон

Бесстыжие 9 сезон

Все сериалы

все сериалы на PB.wtf

RePack

FAR CRY 5

Anonymous, доброе утро, мы катастрофически не успеваем собрать деньги на оплату серверов, помогите нам пожалуйста 5,10,15р., для нас важна любая помощь . В качестве благодарности мы отключим Вам всю рекламу на сайте (укажите свой ник в строку Ваше имя)!

×
  
Magnet ссылка

Очень опасная штучка / One for the Money (Джули Энн Робинсон / Julie Anne Robinson) [2012, комедия, DVD9] R5 pb.wtf

Очень опасная штучка через торрент pb.wtf

Размер: 5.55 GB | Добавлен: 9 лет 4 мес. назад | Торрент скачан:179 раз
Скачать  

28-02-2012 20:02 Очень опасная штучка Скачать торрент  

[font="Georgia"]
Очень опасная штучка / One for the Money
«Когда мужчины не понимают по-хорошему»
Страна: США
Студия: Lakeshore Entertainment, Sidney Kimmel Entertainment
Жанр: комедия
Год выпуска: 2012
Мировая премьера: 26 января 2012
Российская премьера: 26 января 2012
Дата выхода DVD: 1 марта 2012
Дата выхода Blu-Ray: 1 марта 2012
Продолжительность: 01:27:35
Перевод: Профессиональный (дублированный) [Лицензия]
Cубтитры: русские
Оригинальная аудиодорожка: английский
Режиссер: Джули Энн Робинсон / Julie Anne Robinson
В ролях: Кэтрин Хайгл, Джейсон О’Мара, Дэниел Сунджата, Джон Легуизамо, Шерри Шеперд, Дебби Рейнолдс, Дебра Монк, Нат Муни, Адам Пол, Фишер Стивенс
Описание: Продавщица нижнего белья в отставке Стэфани Плам нашла новую работу. Отныне она охотится на мужчин, за поимку которых назначена солидная награда. Ее главное оружие — женская интуиция и модные туфли на высоких каблуках. Но даже они бессильны перед главной целью — мужчиной ее мечты. Он красив, остроумен и смертельно опасен, и при этом он её бывший.
Бонусы: Трейлер, смотрите на DVD, создатели и исполнители, фотогалерея

Качество: DVD9 R5
Формат: DVD-Video
Видео кодек: MPEG2
Аудио кодек: AC3 + DTS
Видео: PAL 16:9 (720x576(0.580)) MPEG Video, 25,000 кадр/сек, 6010 Кбит/сек
Аудио #1: Russian (Dolby AC3, 6 ch) 448 Кбит/сек, 48,0 КГц
Аудио #2: English (Dolby AC3, 6 ch) 448 Кбит/сек, 48,0 КГц
Аудио #3: Russian (DTS, 5 ch) 768 Кбит/сек, 48,0 КГц



Title:
Size: 5.80 Gb ( 6 081 732 KBytes ) - DVD-9
Enabled regions: 1, 2, 3, 4, 5, 6, 7, 8

VTS_01 :
Play Length: 00:00:05
Video: PAL 4:3 (720x576) VBR
Subtitles:
English
English

VTS_02 :
Play Length: 00:00:09
Video: PAL 16:9 (720x576) VBR, Auto Letterboxed
Audio:
Not specified (Dolby AC3, 2 ch)
Subtitles:
Not specified

VTS_03 :
Play Length: 00:02:25
Video: PAL 16:9 (720x576) VBR, Auto Letterboxed
Audio:
Not specified (Dolby AC3, 6 ch)
Not specified (Dolby AC3, 6 ch)
Not specified (Dolby AC3, 6 ch)
Subtitles:
Not specified

VTS_04 :
Play Length: 01:34:02
Video: PAL 16:9 (720x576) VBR, Auto Letterboxed
Audio:
Russian (Dolby AC3, 6 ch)
English (Dolby AC3, 6 ch)
Russian (DTS, 6 ch)
Subtitles:
Russian

VTS_05 :
Play Length: 00:02:00
Video: PAL 16:9 (720x576) VBR, Auto Letterboxed
Audio:
Not specified (Dolby AC3, 2 ch)
Subtitles:
Not specified

VTS_06 :
Play Length: 00:01:37
Video: PAL 16:9 (720x576) VBR, Auto Letterboxed
Audio:
Not specified (Dolby AC3, 2 ch)
Subtitles:
Not specified

VTS_07 :
Play Length: 00:02:00
Video: PAL 16:9 (720x576) VBR, Auto Letterboxed
Audio:
Not specified (Dolby AC3, 2 ch)
Subtitles:
Not specified

VTS_08 :
Play Length: 00:02:22
Video: PAL 16:9 (720x576) VBR, Auto Letterboxed
Audio:
Not specified (Dolby AC3, 2 ch)
Subtitles:
Not specified

VTS_09 :
Play Length: 00:01:50
Video: PAL 16:9 (720x576) VBR, Auto Letterboxed
Audio:
Not specified (Dolby AC3, 2 ch)
Subtitles:
Not specified

VTS_10 :
Play Length: 00:02:13
Video: PAL 16:9 (720x576) VBR, Auto Letterboxed
Audio:
Not specified (Dolby AC3, 2 ch)

VTS_11 :
Play Length: 00:01:46
Video: PAL 16:9 (720x576) VBR, Auto Letterboxed
Audio:
Not specified (Dolby AC3, 2 ch)

VTS_12 :
Play Length: 00:02:14
Video: PAL 16:9 (720x576) VBR, Auto Letterboxed
Audio:
Not specified (Dolby AC3, 2 ch)
Общее
Полное имя : G:\Новинки 2012\Ochen'.opasnaja.shtuchka.2012.DVD9\VIDEO_TS\VTS_06_2.VOB
Формат : MPEG-PS
Размер файла : 1024 Мбайт
Продолжительность : 18 м.
Режим общего битрейта : Переменный
Общий поток : 7816 Кбит/сек

Видео
Идентификатор : 224 (0xE0)
Формат : MPEG Video
Версия формата : Version 2
Профиль формата : Main@Main
Параметр BVOP формата : Да
Параметр матрицы формата : По умолчанию
Параметр GOP формата : M=3, N=12
Продолжительность : 18 м.
Вид битрейта : Переменный
Битрейт : 6010 Кбит/сек
Максимальный битрейт : 8000 Кбит/сек
Ширина : 720 пикселей
Высота : 576 пикселей
Соотношение сторон : 16:9
Частота кадров : 25,000 кадров/сек
Стандарт вещания : PAL
Цветовое пространство : YUV
Субдискретизация насыщенности : 4:2:0
Битовая глубина : 8 бит
Тип развёртки : Прогрессивная
Метод сжатия : С потерями
Бит/(Пиксели*Кадры) : 0.580
Размер потока : 787 Мбайт (77%)

Аудио #1
Идентификатор : 189 (0xBD)-128 (0x80)
Формат : AC-3
Формат/Информация : Audio Coding 3
Расширение режима : CM (complete main)
Режим смешивания : DVD-Video
Продолжительность : 18 м.
Вид битрейта : Постоянный
Битрейт : 448 Кбит/сек
Каналы : 6 каналов
Расположение каналов : Front: L C R, Side: L R, LFE
Частота : 48,0 КГц
Битовая глубина : 16 бит
Метод сжатия : С потерями
Задержка видео : -720 мс.
Размер потока : 58,7 Мбайт (6%)

Аудио #2
Идентификатор : 189 (0xBD)-129 (0x81)
Формат : AC-3
Формат/Информация : Audio Coding 3
Расширение режима : CM (complete main)
Режим смешивания : DVD-Video
Продолжительность : 18 м.
Вид битрейта : Постоянный
Битрейт : 448 Кбит/сек
Каналы : 6 каналов
Расположение каналов : Front: L C R, Side: L R, LFE
Частота : 48,0 КГц
Битовая глубина : 16 бит
Метод сжатия : С потерями
Задержка видео : -771 мс.
Размер потока : 58,7 Мбайт (6%)

Аудио #3
Идентификатор : 189 (0xBD)-138 (0x8A)
Формат : DTS
Формат/Информация : Digital Theater Systems
Режим смешивания : DVD-Video
Продолжительность : 18 м.
Вид битрейта : Постоянный
Битрейт : 755 Кбит/сек
Каналы : 6 каналов
Расположение каналов : Front: L C R, Side: L R, LFE
Частота : 48,0 КГц
Битовая глубина : 24 бит
Метод сжатия : С потерями
Задержка видео : -784 мс.
Размер потока : 98,8 Мбайт (10%)

Текст
Идентификатор : 189 (0xBD)-32 (0x20)
Формат : RLE
Формат/Информация : Run-length encoding
Режим смешивания : DVD-Video
Продолжительность : 18 м.
Задержка видео : 2 с. 920 мс.










pb.wtf



Скачать Очень опасная штучка через торрент http://i2.imageban.ru/out/2012/02/28/112a16b472aed56034dce72b8ff401d6.jpg Скачать фильм Очень опасная штучка через торрент бесплантно в хорошем качестве Описание: Продавщица нижнего белья в отставке Стэфани Плам нашла новую работу. Отныне она охотится на мужчин, за поимку которых назначена ... 10 10 1
Info! Золотая раздача, скачанное не засчитывается.
Торрент: Зарегистрирован [2012-02-28 20:02] · скачан: 179 раз
Статус: √ проверено
Размер: 5.55 GB
Как cкачать? Как скачать Очень опасная штучка через торрент | UTorrent

28-11-2019 20:33  

Отключить всю рекламу на сайте

02-04-2012 05:57 Очень опасная штучка Скачать торрент  

ГЕНИАЛЬНО-ТУПОЙ ТУПОЙ И ЕЩЕ РАЗ ТУПОЙ ФИЛЬМ-КРИВЛЯНИЕ!!!1:20 ПОЗОРА КЭТРИН ХЭЙГЛ pb.wtf



    Дорогой пользователь! Огромная просьба, поблагодарите релизера, оцените раздачу и оставьте свои комментарий, если Вы скачали Очень опасная штучка через торрент бесплатно! Внесите свою лепту в развитие PiratBit!
    Комментировать посты могут только пользователи прошедшие не сложную регистрацию
    Показать сообщения:    

    Очень опасная штучка через торрент
    Скачать бесплатно Очень опасная штучка
    Очень опасная штучка скачать торрент
    Очень опасная штучка смотреть онлайн
    Cкачать фильм Очень опасная штучка бесплатно
    Очень опасная штучка скачать торрент в хорошем качестве
    Очень опасная штучка смотреть онлайн бесплатно в хорошем качестве


    Вы не можете начинать темы
    Вы не можете отвечать на сообщения
    Вы не можете редактировать свои сообщения
    Вы не можете удалять свои сообщения
    Вы не можете голосовать в опросах
    Вы не можете прикреплять файлы к сообщениям
    Вы можете скачивать файлы