1 сезон

3 сезон

iTunes

1

Line

MVO

iTunes

13

1 сезон

RePack

30

Deluxe

pack

Лицензия

ВАЖНО

ИГРА 18+

pack

RePack

MK11

RePack

jed

RePack

fifa19

RePack

RDR2

RePack

NEED FOR SPEED™ PAYBACK

4 сезон

9 сезон

Бесстыжие 9 сезон

Все сериалы

все сериалы на PB.wtf

RePack

FAR CRY 5

Anonymous, добрый вечер, мы катастрофически не успеваем собрать деньги на оплату серверов, помогите нам пожалуйста 5,10,15р., для нас важна любая помощь . В качестве благодарности мы отключим Вам всю рекламу на сайте (укажите свой ник в строку Ваше имя)!

×
  
Magnet ссылка

Переростки / The Inbetweeners Movie (Бен Палмер) [2011 г., комедия, DVD5 (сжатый)] pb.wtf

Переростки через торрент pb.wtf

Размер: 4.22 GB | Добавлен: 9 лет 5 мес. назад | Торрент скачан:35 раз
Скачать  

29-02-2012 03:05 Переростки Скачать торрент  



Переростки / The Inbetweeners Movie

Год выпуска: 2011
Страна: Великобритания
Жанр: комедия
Продолжительность: 01:32:58
Перевод: Профессиональный (полное дублирование) [Лицензия]

Режиссер: Бен Палмер
Продюссер: Кристофер Янг, Дэймон Бисли, Айэйн Моррис
Сценарий: Дэймон Бисли, Айэйн Моррис

Бюджет: $675 889

Мировой рейтинг IMDB 7.00 (19 892)


В ролях: Саймон Бёрд, Джеймс Баккли, Блейк Харрисон, Джо Томас, Эмили Хэд, Лидия Роуз Бьюли, Лаура Хэддок, Тамла Кэри, Джессика Нэппет, Тео Барклем-Биггз, Даниил Эльдаров, Прохор Чеховской, Вероника Саркисова, Анастасия Нестеренко, Дмитрий Курта

Описание: Устав от своих проблем, четверо восемнадцатилетних приятелей подростков с юга Англии отправляются на двухнедельный отдых-мальчишник в Грецию.
Похожие раздачи: Переростки

Качество: DVD5 (сжатый)
Формат: DVD Video
Видео кодек: MPEG2
Аудио кодек: AC3
Видео: 720 x 576 (1.778) at 25.000 fps MPEG Video at 5993 Кбит/сек
Аудио: AC-3 at 448 Кбит/сек 6 каналов, 48,0 КГц
Title: Bob
Size: 4.22 Gb ( 4 420 366 KBytes ) - DVD-5
Enabled regions: 1, 2, 3, 4, 5, 6, 7, 8

VTS_01 :
Play Length:
Video: PAL 4:3 (720x576) VBR
Subtitles:
English
English

VTS_02 :
Play Length:
Video: PAL 16:9 (720x576) VBR, Auto Pan&Scan
Audio:
Not specified (Dolby AC3, 2 ch)
Subtitles:
Not specified

VTS_03 :
Play Length:
Video: PAL 16:9 (720x576) VBR, Auto Pan&Scan
Audio:
Not specified (Dolby AC3, 2 ch)
Not specified (Dolby AC3, 2 ch)
Not specified (Dolby AC3, 2 ch)
Subtitles:
Not specified

VTS_04 :
Play Length: 01:32:58
Video: PAL 16:9 (720x576) VBR, Auto Pan&Scan
Audio:
Russian (Dolby AC3, 6 ch)
Russian (DTS, 5 ch)

VTS_05 :
Play Length:
Video: PAL 16:9 (720x576) VBR, Auto Pan&Scan
Audio:
Not specified (Dolby AC3, 2 ch)
Subtitles:
Not specified

VTS_06 :
Play Length:
Video: PAL 16:9 (720x576) VBR, Auto Pan&Scan
Audio:
Not specified (Dolby AC3, 6 ch)
Subtitles:
Not specified

VTS_07 :
Play Length:
Video: PAL 16:9 (720x576) VBR, Auto Pan&Scan
Audio:
Not specified (Dolby AC3, 6 ch)
Subtitles:
Not specified

VTS_08 :
Play Length:
Video: PAL 16:9 (720x576) VBR, Auto Pan&Scan
Audio:
Not specified (Dolby AC3, 2 ch)
Subtitles:
Not specified

VTS_09 :
Play Length:
Video: PAL 16:9 (720x576) VBR, Auto Pan&Scan
Audio:
Not specified (Dolby AC3, 2 ch)
Subtitles:
Not specified

VTS_10 :
Play Length:
Video: PAL 16:9 (720x576) VBR, Auto Pan&Scan
Audio:
Not specified (Dolby AC3, 2 ch)

VTS_11 :
Play Length:
Video: PAL 16:9 (720x576) VBR, Auto Pan&Scan
Audio:
Not specified (Dolby AC3, 2 ch)
General
Complete name : G:\_Video\Pererostki.2011.DVD-5\VIDEO_TS\VTS_04_1.VOB
Format : MPEG-PS
File size : 1 024 MiB
Duration : 21mn 47s
Overall bit rate : 6 572 Kbps

Video
ID : 224 (0xE0)
Format : MPEG Video
Format version : Version 2
Format profile : Main@Main
Format settings, BVOP : Yes
Format settings, Matrix : Default
Format settings, GOP : M=3, N=12
Duration : 21mn 47s
Bit rate mode : Variable
Bit rate : 5 993 Kbps
Maximum bit rate : 8 000 Kbps
Width : 720 pixels
Height : 576 pixels
Display aspect ratio : 16:9
Frame rate : 25.000 fps
Standard : PAL
Color space : YUV
Chroma subsampling : 4:2:0
Bit depth : 8 bits
Scan type : Progressive
Compression mode : Lossy
Bits/(Pixel*Frame) : 0.578
Stream size : 934 MiB (91%)

Audio
ID : 189 (0xBD)-128 (0x80)
Format : AC-3
Format/Info : Audio Coding 3
Mode extension : CM (complete main)
Muxing mode : DVD-Video
Duration : 21mn 46s
Bit rate mode : Constant
Bit rate : 448 Kbps
Channel(s) : 6 channels
Channel positions : Front: L C R, Side: L R, LFE
Sampling rate : 48.0 KHz
Bit depth : 16 bits
Compression mode : Lossy
Stream size : 69.8 MiB (7%)

Menu
pb.wtf



Скачать Переростки через торрент https://pic1.kartinco.top/images/2011/6yaa4mqovw.png Скачать фильм Переростки через торрент бесплантно в хорошем качестве Описание: Устав от своих проблем, четверо восемнадцатилетних приятелей подростков с юга Англии отправляются на двухнедельный ... 10 10 2
Info! Золотая раздача, скачанное не засчитывается.
Торрент: Зарегистрирован [2012-02-29 03:05] · скачан: 35 раз
Статус: √ проверено
Размер: 4.22 GB
Как cкачать? Как скачать Переростки через торрент | UTorrent

% Раздел Тема Автор DL S | L
Фильмы [HD 720p, 1080p] (Хороший звук DUB, MVO) [ 5.6 GB ] Переростки / The Inbetweeners Movie [2012 BDRip лицензия] ~Relizer~ Скачать
1 | 0
Фильмы (DVD фильмы) [ 6.05 GB ] Переростки / The Inbetweeners Movie [2011 DVD9] R5 voovaz Скачать
1 | 0


Последний раз редактировалось: Sудья (2012-02-29 08:07), всего редактировалось 3 раз(а)

28-11-2019 20:33  

Отключить всю рекламу на сайте

29-02-2012 05:18 Переростки Скачать торрент  

Отличный фильм.pb.wtf



29-02-2012 07:39 Переростки Скачать торрент  

http://pb.wtf/viewtopic.php?t=74428 и
http://pb.wtf/viewtopic.php?t=58124 (в частности требования к заполнению строк аудио и видео ряда)

Для изменения статуса раздачи, после исправления уведомить в со ссылкой на раздачуpb.wtf



    Дорогой пользователь! Огромная просьба, поблагодарите релизера, оцените раздачу и оставьте свои комментарий, если Вы скачали Переростки через торрент бесплатно! Внесите свою лепту в развитие PiratBit!
    Комментировать посты могут только пользователи прошедшие не сложную регистрацию
    Показать сообщения:    

    Переростки через торрент
    Скачать бесплатно Переростки
    Переростки скачать торрент
    Переростки смотреть онлайн
    Cкачать фильм Переростки бесплатно
    Переростки скачать торрент в хорошем качестве
    Переростки смотреть онлайн бесплатно в хорошем качестве


    Вы не можете начинать темы
    Вы не можете отвечать на сообщения
    Вы не можете редактировать свои сообщения
    Вы не можете удалять свои сообщения
    Вы не можете голосовать в опросах
    Вы не можете прикреплять файлы к сообщениям
    Вы можете скачивать файлы