1 сезон

3 сезон

iTunes

1

Line

MVO

iTunes

13

1 сезон

RePack

30

Deluxe

pack

Лицензия

ВАЖНО

ИГРА 18+

pack

RePack

MK11

RePack

jed

RePack

fifa19

RePack

RDR2

RePack

NEED FOR SPEED™ PAYBACK

4 сезон

9 сезон

Бесстыжие 9 сезон

Все сериалы

все сериалы на PB.wtf

RePack

FAR CRY 5

Anonymous, добрый вечер, мы катастрофически не успеваем собрать деньги на оплату серверов, помогите нам пожалуйста 5,10,15р., для нас важна любая помощь . В качестве благодарности мы отключим Вам всю рекламу на сайте (укажите свой ник в строку Ваше имя)!

×
  
Magnet ссылка

Буря / The Tempest (Джули Тэймор / Julie Taymor) [2010, фэнтези, драма, мелодрама, комедия, DVD9] R5 pb.wtf

Буря через торрент pb.wtf

Размер: 7.66 GB | Добавлен: 9 лет 4 мес. назад | Торрент скачан:42 раза
Скачать  

29-02-2012 20:14 Буря Скачать торрент  

[font="Georgia"]
Буря / The Tempest
Страна: США
Студия: Artemis Films, Chartoff Hendee Productions, Chartoff Productions, Miramax Films, Mumbai Mantra Media, Prologue Films, TalkStory Productions, Touchstone Pictures
Жанр: фэнтези, драма, мелодрама, комедия
Год выпуска: 2010
Мировая премьера: 11 сентября 2010
Российская премьера: 21 июля 2011
Дата выхода DVD: 23 февраля 2012
Продолжительность: 01:45:15
Перевод: Профессиональный (многоголосый закадровый) [Лицензия]
Cубтитры: русские
Оригинальная аудиодорожка: английский
Режиссер: Джули Тэймор / Julie Taymor
В ролях: Хелен Миррен, Расселл Брэнд, Рив Карни, Том Конти, Крис Купер, Алан Камминг, Джимон Хунсу, Фелисити Джонс, Альфред Молина, Дэвид Стрэтэйрн
Описание: Проспера управляет волшебным островом и заботится о своей юной дочери Миранде. После кораблекрушения в ее владения попадают королевские особы и их окружение. Катастрофа не была случайностью. Когда-то эти люди изгнали Просперу с ее родной земли, и теперь она, используя свою магическую силу, направила корабль врагов на остров, чтобы свести с ними счеты. Проспера заставляет своих мучителей проходить через опасные, а порой — очень смешные испытания. Однако между Мирандой и принцем Фердинандом вспыхивает любовь. И это то волшебство, с которым даже Проспера не может справиться…
Бонусы: На съемочной площадке, трейлер, анонсы

Качество: DVD9 R5
Формат: DVD-Video
Видео кодек: MPEG2
Аудио кодек: AC3
Видео: PAL 16:9 (720x576(0.702)) MPEG Video, 25,000 кадр/сек, 7282 Кбит/сек
Аудио #1: Russian (Dolby AC3, 6 ch) 448 Кбит/сек, 48,0 КГц
Аудио #2: English (Dolby AC3, 6 ch) 448 Кбит/сек, 48,0 КГц



Title:
Size: 7.66 Gb ( 8 029 498 KBytes ) - DVD-9
Enabled regions: 1, 2, 3, 4, 5, 6, 7, 8

VTS_01 :
Play Length: 00:00:10
Video: PAL 16:9 (720x576) VBR, Auto Pan&Scan, Auto Letterboxed

VTS_02 :
Play Length: 00:00:07
Video: PAL 16:9 (720x576) VBR, Auto Pan&Scan, Auto Letterboxed
Audio:
English (Dolby AC3, 6 ch)

VTS_03 :
Play Length: 00:20:37
Video: PAL 16:9 (720x576) VBR, Auto Pan&Scan
Audio:
English (Dolby AC3, 2 ch)
English (Dolby AC3, 2 ch)
Subtitles:
Russian

VTS_04 :
Play Length: 00:02:17
Video: PAL 16:9 (720x576) VBR, Auto Pan&Scan
Audio:
Russian (Dolby AC3, 2 ch)
English (Dolby AC3, 2 ch)

VTS_05 :
Play Length: 00:01:55
Video: PAL 16:9 (720x576) VBR, Auto Pan&Scan
Audio:
Russian (Dolby AC3, 2 ch)
English (Dolby AC3, 2 ch)

VTS_06 :
Play Length: 00:02:02
Video: PAL 4:3 (720x576) VBR
Audio:
Russian (Dolby AC3, 2 ch)
Nederlands (Dolby AC3, 2 ch)

VTS_07 :
Play Length: 00:01:54
Video: PAL 16:9 (720x576) VBR, Auto Pan&Scan
Audio:
Russian (Dolby AC3, 2 ch)
Francais (Dolby AC3, 2 ch)

VTS_08 :
Play Length: 01:45:15
Video: PAL 16:9 (720x576) VBR, Auto Pan&Scan
Audio:
Russian (Dolby AC3, 6 ch)
English (Dolby AC3, 6 ch)
Subtitles:
Russian
Общее
Полное имя : G:\Новинки 2012\Burya.2010.DVD9\VIDEO_TS\VTS_08_1.VOB
Формат : MPEG-PS
Размер файла : 1024 Мбайт
Продолжительность : 17 м.
Режим общего битрейта : Переменный
Общий поток : 8345 Кбит/сек

Видео
Идентификатор : 224 (0xE0)
Формат : MPEG Video
Версия формата : Version 2
Профиль формата : Main@Main
Параметр BVOP формата : Да
Параметр матрицы формата : Выборочная
Продолжительность : 17 м.
Вид битрейта : Переменный
Битрейт : 7282 Кбит/сек
Максимальный битрейт : 8500 Кбит/сек
Ширина : 720 пикселей
Высота : 576 пикселей
Соотношение сторон : 16:9
Частота кадров : 25,000 кадров/сек
Стандарт вещания : PAL
Цветовое пространство : YUV
Субдискретизация насыщенности : 4:2:0
Битовая глубина : 8 бит
Тип развёртки : Чересстрочная
Порядок развёртки : Верхнее поле первое
Метод сжатия : С потерями
Бит/(Пиксели*Кадры) : 0.702
Размер потока : 894 Мбайт (87%)

Аудио #1
Идентификатор : 189 (0xBD)-128 (0x80)
Формат : AC-3
Формат/Информация : Audio Coding 3
Расширение режима : CM (complete main)
Режим смешивания : DVD-Video
Продолжительность : 17 м.
Вид битрейта : Постоянный
Битрейт : 448 Кбит/сек
Каналы : 6 каналов
Расположение каналов : Front: L C R, Side: L R, LFE
Частота : 48,0 КГц
Битовая глубина : 16 бит
Метод сжатия : С потерями
Размер потока : 55,0 Мбайт (5%)

Аудио #2
Идентификатор : 189 (0xBD)-129 (0x81)
Формат : AC-3
Формат/Информация : Audio Coding 3
Расширение режима : CM (complete main)
Режим смешивания : DVD-Video
Продолжительность : 17 м.
Вид битрейта : Постоянный
Битрейт : 448 Кбит/сек
Каналы : 6 каналов
Расположение каналов : Front: L C R, Side: L R, LFE
Частота : 48,0 КГц
Битовая глубина : 16 бит
Метод сжатия : С потерями
Размер потока : 55,0 Мбайт (5%)

Текст
Идентификатор : 189 (0xBD)-32 (0x20)
Формат : RLE
Формат/Информация : Run-length encoding
Режим смешивания : DVD-Video
Задержка видео : 240 мс.










pb.wtf



Скачать Буря через торрент http://i1.imageban.ru/out/2012/02/29/2045dee43cebbd1e2ef3e09dadb2907d.jpg Скачать фильм Буря через торрент бесплантно в хорошем качестве Описание: Проспера управляет волшебным островом и заботится о своей юной дочери Миранде. После кораблекрушения в ее владения попадают ... 5 10 4
Info! Золотая раздача, скачанное не засчитывается.
Торрент: Зарегистрирован [2012-02-29 20:14] · скачан: 42 раз
Статус: √ проверено
Размер: 7.66 GB
Как cкачать? Как скачать Буря через торрент | UTorrent

28-11-2019 20:33  

Отключить всю рекламу на сайте

    Дорогой пользователь! Огромная просьба, поблагодарите релизера, оцените раздачу и оставьте свои комментарий, если Вы скачали Буря через торрент бесплатно! Внесите свою лепту в развитие PiratBit!
    Комментировать посты могут только пользователи прошедшие не сложную регистрацию
    Показать сообщения:    

    Буря через торрент
    Скачать бесплатно Буря
    Буря скачать торрент
    Буря смотреть онлайн
    Cкачать фильм Буря бесплатно
    Буря скачать торрент в хорошем качестве
    Буря смотреть онлайн бесплатно в хорошем качестве


    Вы не можете начинать темы
    Вы не можете отвечать на сообщения
    Вы не можете редактировать свои сообщения
    Вы не можете удалять свои сообщения
    Вы не можете голосовать в опросах
    Вы не можете прикреплять файлы к сообщениям
    Вы можете скачивать файлы