1 сезон

1 сезон

iTunes

1

КиноПоиск HD

Кинопоиск HD

iTunes

13

1 сезон

RePack

30

Новинка

ВАЖНО

ИГРА 18+

pack

RePack

MK11
pack

Легкие деньги

RePack

jed

RePack

fifa19

RePack

RDR2

RePack

NEED FOR SPEED™ PAYBACK

4 сезон

9 сезон

Бесстыжие 9 сезон

Все сериалы

все сериалы на PB.wtf

RePack

FAR CRY 5
  
Magnet ссылка

Запятнанная репутация / The Human Stain (Роберт Бентон) [2003 г., драма, мелодрама, BDRip-AVC] pb.wtf

Запятнанная репутация через торрент pb.wtf

Качают: 1 [ 0 KB/s ]
Размер: 2.18 GB | Добавлен: 9 лет 1 мес. назад | Торрент скачан:36 раз
Скачать  

01-03-2012 17:35 Запятнанная репутация Скачать торрент  

Запятнанная репутация / The Human Stain

Год выпуска: 2003
Страна: США, Германия, Франция
Жанр: драма, мелодрама
Продолжительность: 01:47:46
Перевод: Профессиональный (полное дублирование)

Режиссер: Роберт Бентон
Сценарий: Николас Мейер, Филип Рот
Премьера в мире: 29 августа 2003



В ролях: Энтони Хопкинс, Николь Кидман, Эд Харрис, Гэри Синиз, Вентворт Миллер, Джасинда Бэрретт, Гарри Дж. Ленникс, Кларк Грегг, Анна Дивер Смит, Лиза Митчелл

Описание: Немолодой профессор более 50 лет скрывал от своих близких страшный секрет. Случайный роман с молодой служанкой становится толчком для расследования прошлой жизни. Грязные тайны прошедших дней врываются в настоящее, сметая все на своем пути…

Качество: BDRip-AVC
Формат: MKV
Видео кодек: H.26x
Аудио кодек: AC3
Видео: 1024х434 (2,35:1), 23.976 fps, 2125 kbps, 0.199 bit/pixel
Аудио#1: 48 kHz, AC3, 3/2 (L,C,R,l,r) + LFE ch, 384.00 kbps (Русский)
Аудио#2: 48 kHz, AC3, 3/2 (L,C,R,l,r) + LFE ch, 384.00 kbps (Английский)

&
Общее
Уникальный идентификатор : 179868952226419509022562164657617304094 (0x875180079780F5E194F3AF8C6C46FA1E)
Формат : Matroska
Версия формата : Version 2
Размер файла : 2,18 Гбайт
Продолжительность : 1 ч. 47 м.
Общий поток : 2893 Кбит/сек
Название фильма : Запятнанная репутация / The Human Stain (2003) BDRip-AVC rip by tise
Дата кодирования : UTC 2012-03-01 13:46:25
Программа кодирования : mkvmerge v5.2.1 ('A Far Off Place') built on Jan 2 2012 23:21:10
Библиотека кодирования : libebml v1.2.3 + libmatroska v1.3.0

Видео
Идентификатор : 1
Формат : AVC
Формат/Информация : Advanced Video Codec
Профиль формата : High@L4.1
Параметр CABAC формата : Да
Параметр ReFrames формата : 12 кадров
Идентификатор кодека : V_MPEG4/ISO/AVC
Продолжительность : 1 ч. 47 м.
Битрейт : 2125 Кбит/сек
Ширина : 1024 пикселя
Высота : 434 пикселя
Соотношение сторон : 2,35:1
Частота кадров : 23,976 кадра/сек
Цветовое пространство : YUV
Субдискретизация насыщенности : 4:2:0
Битовая глубина : 8 бит
Тип развёртки : Прогрессивная
Бит/(Пиксели*Кадры) : 0.199
Размер потока : 1,56 Гбайт (71%)
Библиотека кодирования : x264 core 120 r2164 da19765
Настройки программы : cabac=1 / ref=12 / deblock=1:-3:-3 / analyse=0x3:0x133 / me=umh / subme=10 / psy=1 / psy_rd=1.00:0.10 / mixed_ref=1 / me_range=48 / chroma_me=1 / trellis=2 / 8x8dct=1 / cqm=0 / deadzone=21,11 / fast_pskip=0 / chroma_qp_offset=-3 / threads=6 / sliced_threads=0 / nr=0 / decimate=1 / interlaced=0 / bluray_compat=0 / constrained_intra=0 / bframes=10 / b_pyramid=2 / b_adapt=2 / b_bias=0 / direct=3 / weightb=1 / open_gop=0 / weightp=2 / keyint=240 / keyint_min=22 / scenecut=40 / intra_refresh=0 / rc_lookahead=40 / rc=2pass / mbtree=1 / bitrate=2125 / ratetol=1.0 / qcomp=0.60 / qpmin=10 / qpmax=51 / qpstep=4 / cplxblur=20.0 / qblur=0.5 / ip_ratio=1.40 / aq=1:1.00
Default : Да
Forced : Нет

Аудио #1
Идентификатор : 2
Формат : AC-3
Формат/Информация : Audio Coding 3
Расширение режима : CM (complete main)
Идентификатор кодека : A_AC3
Продолжительность : 1 ч. 47 м.
Вид битрейта : Постоянный
Битрейт : 384 Кбит/сек
Каналы : 6 каналов
Расположение каналов : Front: L C R, Side: L R, LFE
Частота : 48,0 КГц
Битовая глубина : 16 бит
Метод сжатия : С потерями
Размер потока : 296 Мбайт (13%)
Заголовок : дублированный (дубляж)
Язык : Russian
Default : Да
Forced : Нет

Аудио #2
Идентификатор : 3
Формат : AC-3
Формат/Информация : Audio Coding 3
Расширение режима : CM (complete main)
Идентификатор кодека : A_AC3
Продолжительность : 1 ч. 47 м.
Вид битрейта : Постоянный
Битрейт : 384 Кбит/сек
Каналы : 6 каналов
Расположение каналов : Front: L C R, Side: L R, LFE
Частота : 48,0 КГц
Битовая глубина : 16 бит
Метод сжатия : С потерями
Размер потока : 296 Мбайт (13%)
Заголовок : оригинал
Язык : English
Default : Нет
Forced : Нет
pb.wtf



Скачать Запятнанная репутация через торрент https://pic.kartinco.top/images/2011/jkuwjx6kek.png Скачать фильм Запятнанная репутация через торрент бесплантно в хорошем качестве Описание: Немолодой профессор более 50 лет скрывал от своих близких страшный секрет. Случайный роман с молодой служанкой становится толчком ... 5 10 4
Info! Золотая раздача, скачанное не засчитывается.
Торрент: Зарегистрирован [2012-03-01 17:35] · скачан: 36 раз
Статус: √ проверено
Размер: 2.18 GB
Как cкачать? Как скачать Запятнанная репутация через торрент | UTorrent

% Раздел Тема Автор DL S | L
Фильмы [HD 720p, 1080p] (Хороший звук DUB, MVO) [ 13.93 GB ] Запятнанная репутация / The Human Stain [2003 BDRip 1080p by msltel] DUB DVO 2 x AVO msltel Скачать
1 | 0
Фильмы [HD 720p, 1080p] (Хороший звук DUB, MVO) [ 5.12 GB ] Запятнанная репутация / The Human Stain [2003 BDRip 720p by msltel] DUB DVO 2 x AVO msltel Скачать
1 | 0
Фильмы [HD 720p, 1080p] (Хороший звук DUB, MVO) [ 5.39 GB ] Запятнанная репутация / The Human Stain [2003 BDRip ] markfiter Скачать
2 | 0
Фильмы [HD 720p, 1080p] (Хороший звук DUB, MVO) [ 7.29 GB ] Запятнанная репутация / The Human Stain [2003 Мело BDRip 1080p] boombee Скачать
1 | 0
Фильмы [HD 720p, 1080p] (Хороший звук DUB, MVO) [ 11.32 GB ] Запятнанная репутация / The Human Stain [2003 Мело BDRip] boombee Скачать
1 | 0
Фильмы 2001-2005 [ 1.37 GB ] Запятнанная репутация / Human Stain The [2003 DVDRip] VintMosina Скачать
1 | 0

28-11-2019 20:33  

Отключить всю рекламу на сайте

    Дорогой пользователь! Огромная просьба, поблагодарите релизера, оцените раздачу и оставьте свои комментарий, если Вы скачали Запятнанная репутация через торрент бесплатно! Внесите свою лепту в развитие PiratBit!
    Комментировать посты могут только пользователи прошедшие не сложную регистрацию
    Показать сообщения:    

    Запятнанная репутация через торрент
    Скачать бесплатно Запятнанная репутация
    Запятнанная репутация скачать торрент
    Запятнанная репутация смотреть онлайн
    Cкачать фильм Запятнанная репутация бесплатно
    Запятнанная репутация скачать торрент в хорошем качестве
    Запятнанная репутация смотреть онлайн бесплатно в хорошем качестве


    Вы не можете начинать темы
    Вы не можете отвечать на сообщения
    Вы не можете редактировать свои сообщения
    Вы не можете удалять свои сообщения
    Вы не можете голосовать в опросах
    Вы не можете прикреплять файлы к сообщениям
    Вы можете скачивать файлы