Ссылка на приватное зеркало нашего сайта всего за 1$. Внимание количество ограничено!!!

2 сезон

iTunes

1 сезон

1

iTunes

iTunes

iTunes

1 сезон

RePack

30

ИГРА 18+

pack

ВАЖНО

!!Акция!!

Alien_RageХит недели

RePack

MK11
pack

Забери бонус

RePack

jed

!!Акция!!

Alien_Rage

RePack

fifa19

RePack

Assassins Creed: Odyssey

RePack

NEED FOR SPEED™ PAYBACK

4 сезон

9 сезон

Бесстыжие 9 сезон

Все сериалы

все сериалы на PB.wtf

RePack

FAR CRY 5
  

Девушка, которая играла с огнем / Flickan som lekte med elden (Дэниэл Альфредсон) [2009 г., триллер, драма, криминал, детектив, BDRip 1080p] pb.wtf

Девушка, которая играла с огнем через торрент pb.wtf

Размер: 10.81 GB | Добавлен: 6 лет 2 мес. назад | Торрент скачан:141 раз
Скачать  

03-03-2012 11:14 Девушка, которая играла с огнем Скачать торрент  

Девушка, которая играла с огнем / Flickan som lekte med elden

Год выпуска: 2009
Страна: Германия, Дания, Швеция
Жанр: триллер, драма, криминал, детектив
Продолжительность: 02:09:33
Перевод: Профессиональный (многоголосый, закадровый) [Лицензия]

Режиссер: Дэниэл Альфредсон

Лицам до 17 лет обязательно присутствие взрослого


В ролях: Микаэл Нюквист, Нуми Рапас, Лена Эндре, Петер Андерссон, Михалис Куцогиннакис, Анника Халлин, София Ледарп, Джейкоб Эрикссон, Рубен Сэллмендер, Ясмин Гарби

Описание: Поздно вечером в своей квартире застрелены журналист и его подруга — люди, изучавшие каналы поставки в Швецию секс-рабынь из Восточной Европы. Среди клиентов малопочтенного бизнеса замечены представители властных структур. Кажется очевидным, каким кругам была выгодна смерть этих двоих. Микаэл Блумквист начинает собственное расследование гибели своих коллег и друзей и вдруг узнает, что в убийстве подозревают его давнюю знакомую Лисбет Саландер, самую странную девушку на свете, склонную играть с огнем — к примеру, заливать его бензином. По всей Швеции идет охота на «убийцу-психопатку», но Лисбет не боится бросить вызов кому угодно — и мафии, и общественным структурам, и самой смерти.

Качество: BDRip 1080p
Формат: MKV
Видео кодек: AVC
Аудио кодек: AC3
Видео: AVC, 1920x1080 (16:9), 24.000 fps, 11.5 Mbps (0.231 bit/pixel)
Аудио: AC-3, 48.0 KHz, 6 ch, 448 Kbps, CBR (Русский)Релиз от

Скачать

| |

скриншот  скриншот  скриншот  скриншот  
Общее
Уникальный идентификатор : 219649588089739646957416403278739110057 (0xA53EF8CE45330D968FA857B55C2178A9)
Полное имя : D:\Torrents\Девушка, которая играла с огнем BDRip1080p [Piratbit.net R.G. HD-Films].mkv
Формат : Matroska
Версия формата : Version 2
Размер файла : 10,8 Гбайт
Продолжительность : 2 ч. 9 м.
Общий поток : 11,9 Мбит/сек
Название фильма : Piratbit.net R.G. HD-Films ©
Дата кодирования : UTC 2012-03-03 10:27:01
Программа кодирования : mkvmerge v5.0.1 ('Es ist Sommer') built on Oct 9 2011 11:55:43
Библиотека кодирования : libebml v1.2.2 + libmatroska v1.3.0

Видео
Идентификатор : 1
Формат : AVC
Формат/Информация : Advanced Video Codec
Профиль формата : High@L4.1
Параметр CABAC формата : Да
Параметр ReFrames формата : 4 кадра
Идентификатор кодека : V_MPEG4/ISO/AVC
Продолжительность : 2 ч. 9 м.
Битрейт : 11,5 Мбит/сек
Ширина : 1920 пикселей
Высота : 1080 пикселей
Соотношение сторон : 16:9
Частота кадров : 24,000 кадра/сек
Цветовое пространство : YUV
Субдискретизация насыщенности : 4:2:0
Битовая глубина : 8 бит
Тип развёртки : Прогрессивная
Бит/(Пиксели*Кадры) : 0.231
Размер потока : 10,2 Гбайт (94%)
Библиотека кодирования : x264 core 120 r2164 da19765
Настройки программы : cabac=1 / ref=4 / deblock=1:-1:-1 / analyse=0x3:0x113 / me=hex / subme=7 / psy=1 / psy_rd=1.00:0.00 / mixed_ref=1 / me_range=16 / chroma_me=1 / trellis=1 / 8x8dct=1 / cqm=0 / deadzone=21,11 / fast_pskip=1 / chroma_qp_offset=-2 / threads=6 / sliced_threads=0 / nr=0 / decimate=1 / interlaced=0 / bluray_compat=0 / constrained_intra=0 / bframes=3 / b_pyramid=2 / b_adapt=1 / b_bias=0 / direct=1 / weightb=1 / open_gop=0 / weightp=2 / keyint=240 / keyint_min=24 / scenecut=40 / intra_refresh=0 / rc_lookahead=40 / rc=2pass / mbtree=1 / bitrate=11500 / ratetol=1.0 / qcomp=0.60 / qpmin=0 / qpmax=69 / qpstep=4 / cplxblur=20.0 / qblur=0.5 / ip_ratio=1.40 / aq=1:1.00
Язык : English
Default : Да
Forced : Нет

Аудио
Идентификатор : 2
Формат : AC-3
Формат/Информация : Audio Coding 3
Расширение режима : CM (complete main)
Идентификатор кодека : A_AC3
Продолжительность : 2 ч. 9 м.
Вид битрейта : Постоянный
Битрейт : 448 Кбит/сек
Каналы : 6 каналов
Расположение каналов : Front: L C R, Side: L R, LFE
Частота : 48,0 КГц
Битовая глубина : 16 бит
Метод сжатия : С потерями
Размер потока : 415 Мбайт (4%)
Заголовок : AC-3, 48.0 KHz, 6 ch, 448 Kbps
Язык : Russian
Default : Да
Forced : Нет

Меню
00:00:00.000 : :Chapter 01
00:07:54.541 : :Chapter 02
00:15:07.500 : :Chapter 03
00:23:26.250 : :Chapter 04
00:31:07.416 : :Chapter 05
00:36:22.750 : :Chapter 06
00:43:06.750 : :Chapter 07
00:51:48.125 : :Chapter 08
00:59:03.916 : :Chapter 09
01:06:19.625 : :Chapter 10
01:12:16.791 : :Chapter 11
01:19:35.541 : :Chapter 12
01:25:31.291 : :Chapter 13
01:32:58.166 : :Chapter 14
01:40:50.916 : :Chapter 15
01:47:56.041 : :Chapter 16
01:55:14.333 : :Chapter 17
02:01:12.583 : :Chapter 18
02:09:23.166 : :Chapter 19
Это вторая часть из трилогии "Миллениум" Стига Ларссона: "Девушка с татуировкой дракона", "Девушка, которая играла с огнем" и "Девушка, которая взрывала воздушные замки"pb.wtf



Скачать Девушка, которая играла с огнем через торрент http://pic.kartinco.top/images/2011/4svtdmiqoq.jpg Скачать фильм Девушка, которая играла с огнем через торрент бесплантно в хорошем качестве Описание: Поздно вечером в своей квартире застрелены журналист и его подруга — люди, изучавшие каналы поставки в Швецию секс-рабынь ... 8.9 10 12
Info! Золотая раздача, скачанное не засчитывается.
Торрент: Зарегистрирован [2014-08-04 18:20] · скачан: 141 раз
Статус: √ проверено
Размер: 10.81 GB
Как cкачать? Как скачать Девушка, которая играла с огнем через торрент | qTorrent

% Раздел Тема Автор DL S | L
Фильмы 2009 [ 1.45 GB ] Девушка которая играла с огнем / Flickan som lekte med elden [2009 HDRip-AVC] MVO sokol_ok Скачать
1 | 0
Фильмы (Blu-ray, BD-Remux, HDDVD) [ 21.16 GB ] Девушка которая играла с огнем / Flickan som lekte med elden [2009 Blu-Ray] shuller Скачать
1 | 0
Фильмы 2009 [ 2.06 GB ] Девушка которая играла с огнем / Flickan som lekte med elden [2009 HQRip] R5 SeriyWolf Скачать
1 | 0
Фильмы [HD 720p, 1080p] (Хороший звук DUB, MVO) [ 6.96 GB ] Девушка которая играла с огнем / Flickan Som Lekte Med Elden [2009 BDRip ] Flint3 Скачать
1 | 0

28-11-2019 20:33  

Отключить всю рекламу на сайте

03-08-2014 19:22 Девушка, которая играла с огнем Скачать торрент  

shuller, Спасибо кэп забираю, пропустил трилогию...pb.wtf



04-08-2014 18:30 Девушка, которая играла с огнем Скачать торрент  

Отличная трилогия,хочется продолжения. pb.wtf



04-08-2014 19:01 Девушка, которая играла с огнем Скачать торрент  

Raven писал(а):

shuller, Спасибо кэп забираю, пропустил трилогию...

Парни...!!!
Подскажите, в какой последовательности смотреть эту трилогию...???pb.wtf



04-08-2014 19:07 Девушка, которая играла с огнем Скачать торрент  

WZW,
Девушка с татуировкой дракона
Девушка, которая играла с огнем
Девушка, которая взрывала воздушные замкиpb.wtf



    Дорогой пользователь! Огромная просьба, поблагодарите релизера, оцените раздачу и оставьте свои комментарий, если Вы скачали Девушка, которая играла с огнем через торрент бесплатно! Внесите свою лепту в развитие PiratBit!
    Комментировать посты могут только пользователи прошедшие не сложную регистрацию
    Показать сообщения:    

    Девушка, которая играла с огнем через торрент
    Скачать бесплатно Девушка, которая играла с огнем
    Девушка, которая играла с огнем скачать торрент
    Девушка, которая играла с огнем смотреть онлайн
    Cкачать фильм Девушка, которая играла с огнем бесплатно
    Девушка, которая играла с огнем скачать торрент в хорошем качестве
    Девушка, которая играла с огнем смотреть онлайн бесплатно в хорошем качестве


    Вы не можете начинать темы
    Вы не можете отвечать на сообщения
    Вы не можете редактировать свои сообщения
    Вы не можете удалять свои сообщения
    Вы не можете голосовать в опросах
    Вы не можете прикреплять файлы к сообщениям
    Вы можете скачивать файлы