новый адрес
Ссылка на приватное зеркало всего за 1$. Внимание количество ограничено!!!

iTunes

1+1

iTunes

мы

WEB-DL

1

iTunes

Чернобыль

iTunes

Ральф против интернета

Лицензия

ПШазам

Лицензия

Оно 2

Лицензия

30
pack

Вам бонус

ВАЖНО

!!Акция!!

Alien_RageХит недели

RePack

Resident Evil 21

ИГРА 18+

pack

RePack

jed

!!Акция!!

Alien_Rage

RePack

fifa19

RePack

Assassins Creed: Odyssey

RePack

NEED FOR SPEED™ PAYBACK

3 сезон

9 сезон

Бесстыжие 9 сезон

Все сериалы

все сериалы на PB.wtf

RePack

FAR CRY 5
Ребята, катастрофически не хватает 1900р. для оплаты серверов за Октябрь (всвязи с блокировками трафик упал в 3 раза), 1-2р., выручайте.
  

Субмарина / Submarine (Ричард Айоаде) [2010 г., драма, комедия, BDRip (720p), лицензия] pb.wtf

Субмарина через торрент pb.wtf

Размер: 6.33 GB | Добавлен: 7 лет 9 мес. назад | Торрент скачан:87 раз
Скачать  

03-03-2012 18:43 Субмарина Скачать торрент  

Субмарина / Submarine

Год выпуска: 2010
Страна: США, Великобритания / Film4, Film Agency for Wales, Red Hour Films
Жанр: драма, комедия
Продолжительность: 01:36:53
Перевод: Профессиональный (многоголосый, закадровый) [Лицензия]
Тип релиза: Лицензия

Режиссер: Ричард Айоаде

В ролях: Ноа Тейлор, Пэдди Консидайн, Крэйг Робертс, Ясмин Пейдж, Салли Хокинс, Даррен Эванс, Озиан Кай Дулаис, Лили МакКанн, Отис Ллойд, Элинор Кроули

Описание: Познакомьтесь с Оливером Тейтом - не по годам развитым тинэйджером, неисправимым романтиком и сентиментальным мечтателем, которого никто не воспринимает всерьёз. Главные цели Оливера: сохранить разваливающийся брак своих родителей и лишиться девственности до наступления шестнадцати лет в объятиях девушки мечты.

Качество: BDRip (720p)
Формат: MKV
Видео кодек: AVC
Аудио кодек: AC3
Видео: 7370 kb/s, 1280x69023.976 fps
Аудио#1: Russian: AC3, 448 kb/s (6 ch) 48.0 KHz [R5]
Аудио#2: Russian: DTS, 755 kb/s (6 ch) 48.0 KHz [ozzTV]
Аудио#3: English: DTS, 755 kb/s (6 ch) 48.0 KHz
Субтитры
: Russian [R5, el_brujo], English

Релиз от:
General
Complete name : Submarine.2011.P.BDRip.720p.IRONCLUB.mkv
Format : Matroska
File size : 6.33 GiB
Duration : 1h 36mn
Overall bit rate : 9 356 Kbps
Movie name : IRONCLUB
Encoded date : UTC 2012-03-03 15:56:11
Writing application : mkvmerge v4.9.1 ('Ich will') сборка от Jul 11 2011 23:53:15
Writing library : libebml v1.2.1 + libmatroska v1.1.1

Video
ID : 1
Format : AVC
Format/Info : Advanced Video Codec
Format profile : High@L4.1
Format settings, CABAC : Yes
Format settings, ReFrames : 4 frames
Codec ID : V_MPEG4/ISO/AVC
Duration : 1h 36mn
Bit rate : 7 370 Kbps
Width : 1 280 pixels
Height : 690 pixels
Display aspect ratio : 1.855
Frame rate : 23.976 fps
Color space : YUV
Chroma subsampling : 4:2:0
Bit depth : 8 bits
Scan type : Progressive
Bits/(Pixel*Frame) : 0.348
Stream size : 4.88 GiB (77%)
Title : Submarine.2011.720p.BluRay.DD5.1.x264-DON
Writing library : x264 core 116 r2019 9cc407d
Encoding settings : cabac=1 / ref=4 / deblock=1:-3:-3 / analyse=0x3:0x113 / me=umh / subme=9 / psy=1 / psy_rd=1.15:0.10 / mixed_ref=1 / me_range=24 / chroma_me=1 / trellis=2 / 8x8dct=1 / cqm=0 / deadzone=21,11 / fast_pskip=1 / chroma_qp_offset=-3 / threads=3 / sliced_threads=0 / nr=0 / decimate=0 / interlaced=0 / bluray_compat=0 / constrained_intra=0 / bframes=8 / b_pyramid=2 / b_adapt=2 / b_bias=0 / direct=3 / weightb=1 / open_gop=0 / weightp=2 / keyint=250 / keyint_min=23 / scenecut=40 / intra_refresh=0 / rc_lookahead=40 / rc=2pass / mbtree=1 / bitrate=7370 / ratetol=1.0 / qcomp=0.60 / qpmin=0 / qpmax=69 / qpstep=4 / cplxblur=20.0 / qblur=0.5 / ip_ratio=1.40 / aq=1:1.10
Language : English

Audio #1
ID : 2
Format : AC-3
Format/Info : Audio Coding 3
Mode extension : CM (complete main)
Codec ID : A_AC3
Duration : 1h 36mn
Bit rate mode : Constant
Bit rate : 448 Kbps
Channel(s) : 6 channels
Channel positions : Front: L C R, Side: L R, LFE
Sampling rate : 48.0 KHz
Bit depth : 16 bits
Stream size : 310 MiB (5%)
Title : MVO R5
Language : Russian

Audio #2
ID : 3
Format : DTS
Format/Info : Digital Theater Systems
Codec ID : A_DTS
Duration : 1h 36mn
Bit rate mode : Constant
Bit rate : 755 Kbps
Channel(s) : 6 channels
Channel positions : Front: L C R, Side: L R, LFE
Sampling rate : 48.0 KHz
Bit depth : 16 bits
Stream size : 523 MiB (8%)
Title : Ozz.TV
Language : Russian

Audio #3
ID : 4
Format : DTS
Format/Info : Digital Theater Systems
Codec ID : A_DTS
Duration : 1h 36mn
Bit rate mode : Constant
Bit rate : 755 Kbps
Channel(s) : 6 channels
Channel positions : Front: L C R, Side: L R, LFE
Sampling rate : 48.0 KHz
Bit depth : 16 bits
Stream size : 523 MiB (8%)
Title : Origina
Language : English

Text #1
ID : 5
Format : UTF-8
Codec ID : S_TEXT/UTF8
Codec ID/Info : UTF-8 Plain Text
Title : R5
Language : Russian

Text #2
ID : 6
Format : UTF-8
Codec ID : S_TEXT/UTF8
Codec ID/Info : UTF-8 Plain Text
Title : el_brujo
Language : Russian

Text #3
ID : 7
Format : UTF-8
Codec ID : S_TEXT/UTF8
Codec ID/Info : UTF-8 Plain Text
Title : English
Language : English

Menu #1
00:00:00.000 : en:00:00:00.000
00:07:31.076 : en:00:07:31.076
00:14:12.393 : en:00:14:12.393
00:19:53.859 : en:00:19:53.859
00:28:21.199 : en:00:28:21.199
00:35:09.357 : en:00:35:09.357
00:43:14.592 : en:00:43:14.592
00:50:18.891 : en:00:50:18.891
00:57:36.703 : en:00:57:36.703
01:06:48.838 : en:01:06:48.838
01:14:49.026 : en:01:14:49.026
01:25:59.112 : en:01:25:59.112

Menu #2
00:00:00.097 : en:00:00:00.097
pb.wtf



Скачать Субмарина через торрент http://piratpic.net/images/12675851273029798533.png Скачать фильм Субмарина через торрент бесплантно в хорошем качестве Описание: Познакомьтесь с Оливером Тейтом - не по годам развитым тинэйджером, неисправимым романтиком и сентиментальным мечтателем, ... 4.7 10 6
Info! Золотая раздача, скачанное не засчитывается.
Торрент: Зарегистрирован [2012-03-03 18:43] · скачан: 87 раз
Статус: √ проверено
Размер: 6.33 GB
Как cкачать? Как скачать Субмарина через торрент | qTorrent

% Раздел Тема Автор DL S | L
Арт-хаус и авторское кино [ 1.37 GB ] Субмарина / Submarine [2010 HDRip лицензия] Lil Badun Скачать
1 | 0

28-11-2019 20:33  

Отключить всю рекламу на сайте

    Дорогой пользователь! Огромная просьба, поблагодарите релизера, оцените раздачу и оставьте свои комментарий, если Вы скачали Субмарина через торрент бесплатно! Внесите свою лепту в развитие PiratBit!
    Комментировать посты могут только пользователи прошедшие не сложную регистрацию
    Показать сообщения:    

    Субмарина через торрент
    Скачать бесплатно Субмарина
    Субмарина скачать торрент
    Субмарина смотреть онлайн
    Cкачать фильм Субмарина бесплатно
    Субмарина скачать торрент в хорошем качестве
    Субмарина смотреть онлайн бесплатно в хорошем качестве


    Вы не можете начинать темы
    Вы не можете отвечать на сообщения
    Вы не можете редактировать свои сообщения
    Вы не можете удалять свои сообщения
    Вы не можете голосовать в опросах
    Вы не можете прикреплять файлы к сообщениям
    Вы можете скачивать файлы