Ссылка на приватное зеркало нашего сайта всего за 1$. Внимание количество ограничено!!!

2 сезон

iTunes

1 сезон

1

2 сезон

2 сезон

iTunes

1 сезон

RePack

30

Ultimate

ВАЖНО

ИГРА 18+

pack

RePack

MK11
pack

Забери бонус

RePack

jed

!!Акция!!

Alien_Rage

RePack

fifa19

RePack

Assassins Creed: Odyssey

RePack

NEED FOR SPEED™ PAYBACK

4 сезон

9 сезон

Бесстыжие 9 сезон

Все сериалы

все сериалы на PB.wtf

RePack

FAR CRY 5
  

Голодный кролик атакует / Seeking Justice (Роджер Дональдсон / Roger Donaldson) [2011 г. США. боевик, триллер, драма, Blu-ray Disc (custom) 1080p] {ITA Transfer} pb.wtf

Голодный кролик атакует через торрент pb.wtf

Размер: 19.69 GB | Добавлен: 8 лет 8 мес. назад | Торрент скачан:115 раз
Скачать  

05-03-2012 11:30 Голодный кролик атакует Скачать торрент  

Голодный кролик атакует / Seeking Justice

Год выпуска: 2011
Страна: США
Жанр: боевик, триллер, драма
Продолжительность: 01:45:01
Перевод: Профессиональный (полное дублирование) [Лицензия]
Субтитры: Итальянские

Режиссер: Роджер Дональдсон / Roger Donaldson
Продюссер: Рэм Бергман, Тоби Магуайр, Джеймс Д. Штерн
Сценарий: Роберт Таннен, Тодд Хикки

лицам до 17 лет обязательно присутствие взрослого
Мировой рейтинг IMDB 6.10 (7 312)


В ролях: Николас Кейдж, Дженьюэри Джонс, Гай Пирс, Дженнифер Карпентер, Айрон Э. Синглтон, Хэролд Перрино, Ксандер Беркли, Джо Крест, Моника Акоста, Донна ДюПлантье, Василий Дахненко, Наталья Фищук, Даниил Щебланов, Томас Шлеккер

Описание: Фильм сфокусируется на человеке, супруга которого становится жертвой жестокого преступления, и он внедряется в тайную организацию мстителей.

Похожие раздачи: Голодный кролик атакует

Качество: Blu-ray 1080p
Формат: BDMV
Видео кодек: AVC
Аудио кодек: DTS-HD
Видео: MPEG-4 AVC Video / 19998 kbps / 1080p / 24 fps / 16:9 / High Profile 4.1
Аудио#1: English / DTS-HD Master Audio / 2683 kbps / 5.1 / 48 kHz / 2683 kbps / 16-bit (DTS Core: 5.1 / 48 kHz / 1509 kbps / 16-bit / DN -4dB)
Аудио#2: Russian / DTS-HD Master Audio / 2033 kbps / 5.1 / 48 kHz / 2033 kbps / 16-bit (DTS Core: 5.1 / 48 kHz / 1509 kbps / 16-bit)
Диск пересобран из оригинального блурэя, используемое програмное обеспечение: BD Reauthor от DVDLogic Software (http://www.dvd-logic.com) и Sonic Scenarist BD, Adobe Photoshop, Sony Sound Forge, Eac3to, DTS-HD Suite. Структура диска полностью сохранена.
Воспроизведение проверено на Arcsoft Total Media Player 5, Arcsoft Total Media Player 3, Power DVD10, Scenarist QC 1.5, Dune BD-Prime 3.0 и бытовом блурей плеере LG BX-580. (Содержимое папки "AACS" перенесено в "ANY!").
Полностью локализовано (переведено на русский язык меню!

Код:

• Трейлер.

Disc Title: SEEKING_JUSTICE_BD_BLUEBIRD
Disc Size: 21 143 676 897 bytes
Protection: AACS
BD-Java: Yes
BDInfo: 0.5.2
Notes:
BDINFO HOME AND REPORTS SUBMISSION:
Cinema Squid
http://www.cinemasquid.com/Tools.aspx
INCLUDES FORUMS REPORT FOR:
Unofficial Blu-ray Audio and Video Specifications Thread
http://www.avsforum.com/avs-vb/showthread.php?t=760714
http://forum.blu-ray.com/showthread.php?t=3338
********************
PLAYLIST: 00002.MPLS
********************
<--- BEGIN FORUMS PASTE --->

Код:

Total   Video
Title                                                           Codec   Length  Movie Size      Disc Size       Bitrate Bitrate Main Audio Track                          Secondary Audio Track
-----                                                           ------  ------- --------------  --------------  ------- ------- ------------------                        ---------------------
00002.MPLS                                                      AVC     1:45:01 20 766 013 440  21 143 676 897  26,37   20,00   DTS-HD Master 5.1 2683Kbps (48kHz/16-bit)

Код:

DISC INFO:
Disc Title:     SEEKING_JUSTICE_BD_BLUEBIRD
Disc Size:      21 143 676 897 bytes
Protection:     AACS
BD-Java:        Yes
BDInfo:         0.5.2
PLAYLIST REPORT:
Name:                   00002.MPLS
Size:                   20 766 013 440 bytes
Length:                 1:45:01 (h:m:s)
Total Bitrate:          26,37 Mbps
Description:
VIDEO:
Codec                   Bitrate             Description
-----                   -------             -----------
MPEG-4 AVC Video        19998 kbps          1080p / 24 fps / 16:9 / High Profile 4.1
AUDIO:
Codec                           Language        Bitrate         Description
-----                           --------        -------         -----------
DTS-HD Master Audio             English         2683 kbps       5.1 / 48 kHz / 2683 kbps / 16-bit (DTS Core: 5.1 / 48 kHz / 1509 kbps / 16-bit)
DTS-HD Master Audio             Russian         2036 kbps       5.1 / 48 kHz / 2036 kbps / 16-bit (DTS Core: 5.1 / 48 kHz / 1509 kbps / 16-bit)
SUBTITLES:
Codec                           Language        Bitrate         Description
-----                           --------        -------         -----------
Presentation Graphics           Italian         38,673 kbps
FILES:
Name            Time In         Length          Size            Total Bitrate
----            -------         ------          ----            -------------
00002.M2TS      0:00:00.000     1:45:01.000     20 766 013 440  26 365
CHAPTERS:
Number          Time In         Length          Avg Video Rate  Max 1-Sec Rate  Max 1-Sec Time  Max 5-Sec Rate  Max 5-Sec Time  Max 10Sec Rate  Max 10Sec Time  Avg Frame Size  Max Frame Size  Max Frame Time
------          -------         ------          --------------  --------------  --------------  --------------  --------------  --------------  --------------  --------------  --------------  --------------
1               0:00:00.000     0:08:46.833     20 842 kbps     40 394 kbps     00:02:32.041    36 437 kbps     00:02:28.666    34 582 kbps     00:02:24.041    108 534 bytes   569 105 bytes   00:05:08.916
2               0:08:46.833     0:10:43.166     18 405 kbps     36 845 kbps     00:18:57.416    33 756 kbps     00:12:20.708    29 315 kbps     00:16:25.333    95 861 bytes    581 595 bytes   00:12:22.291
3               0:19:30.000     0:09:06.416     25 188 kbps     39 986 kbps     00:19:51.208    34 994 kbps     00:19:51.416    33 901 kbps     00:19:47.999    131 188 bytes   575 574 bytes   00:24:22.041
4               0:28:36.416     0:08:09.416     19 271 kbps     44 938 kbps     00:34:38.041    36 159 kbps     00:34:36.708    32 030 kbps     00:34:35.958    100 368 bytes   583 278 bytes   00:33:38.333
5               0:36:45.833     0:09:33.583     23 968 kbps     43 206 kbps     00:46:06.208    34 614 kbps     00:40:01.624    33 871 kbps     00:40:01.249    124 836 bytes   580 574 bytes   00:40:03.166
6               0:46:19.416     0:10:01.583     29 815 kbps     39 082 kbps     00:46:19.666    33 428 kbps     00:46:19.458    32 069 kbps     00:46:19.624    155 287 bytes   579 000 bytes   00:47:09.041
7               0:56:21.000     0:07:09.000     18 919 kbps     33 897 kbps     00:56:42.083    31 529 kbps     00:56:42.249    31 076 kbps     00:56:34.583    98 538 bytes    530 357 bytes   00:59:11.958
8               1:03:30.000     0:09:08.500     18 195 kbps     39 923 kbps     01:08:23.541    31 880 kbps     01:06:19.041    28 148 kbps     01:09:44.249    94 764 bytes    558 494 bytes   01:09:47.291
9               1:12:38.500     0:08:25.583     18 176 kbps     41 176 kbps     01:14:32.874    34 478 kbps     01:14:29.708    31 454 kbps     01:14:28.958    94 668 bytes    530 614 bytes   01:14:32.916
10              1:21:04.083     0:08:30.083     18 413 kbps     36 993 kbps     01:28:20.916    32 007 kbps     01:28:18.708    30 492 kbps     01:27:30.208    95 902 bytes    514 545 bytes   01:28:51.416
11              1:29:34.166     0:10:14.833     14 993 kbps     40 166 kbps     01:34:19.749    27 713 kbps     01:35:05.749    24 107 kbps     01:32:14.833    78 087 bytes    466 848 bytes   01:39:45.708
12              1:39:49.000     0:05:12.000     7 747 kbps      16 216 kbps     01:43:58.333    14 962 kbps     01:43:56.083    14 311 kbps     01:43:53.833    40 359 bytes    156 145 bytes   01:43:58.458
STREAM DIAGNOSTICS:
File            PID             Type            Codec           Language                Seconds                 Bitrate                 Bytes           Packets
----            ---             ----            -----           --------                --------------          --------------          -------------   -----
00002.M2TS      4113 (0x1011)   0x1B            AVC                                     6300,833                19 999                  15 751 211 659  85 692 737
00002.M2TS      4352 (0x1100)   0x86            DTS-HD MA       rus (Russian)           6300,833                2 036                   1 603 411 124   9 694 556
00002.M2TS      4353 (0x1101)   0x86            DTS-HD MA       eng (English)           6300,833                2 683                   2 113 177 220   12 464 889
00002.M2TS      4608 (0x1200)   0x90            PGS             ita (Italian)           6300,833                39                      30 459 872      171 779

<---- END FORUMS PASTE ---->
QUICK SUMMARY:
Disc Title: SEEKING_JUSTICE_BD_BLUEBIRD
Disc Size: 21 143 676 897 bytes
Protection: AACS
BD-Java: Yes
Playlist: 00002.MPLS
Size: 20 766 013 440 bytes
Length: 1:45:01
Total Bitrate: 26,37 Mbps
Video: MPEG-4 AVC Video / 19998 kbps / 1080p / 24 fps / 16:9 / High Profile 4.1
Audio: English / DTS-HD Master Audio / 5.1 / 48 kHz / 2683 kbps / 16-bit (DTS Core: 5.1 / 48 kHz / 1509 kbps / 16-bit)
Audio: Russian / DTS-HD Master Audio / 5.1 / 48 kHz / 2036 kbps / 16-bit (DTS Core: 5.1 / 48 kHz / 1509 kbps / 16-bit)
Subtitle: Italian / 38,673 kbps
********************
PLAYLIST: 00004.MPLS
********************
<--- BEGIN FORUMS PASTE --->

Код:

Total   Video
Title                                                           Codec   Length  Movie Size      Disc Size       Bitrate Bitrate Main Audio Track                          Secondary Audio Track
-----                                                           ------  ------- --------------  --------------  ------- ------- ------------------                        ---------------------
00004.MPLS                                                      MPEG-2  0:01:44 261 120 000     21 143 676 897  19,99   18,85   DD AC3 2.0 192Kbps

Код:

DISC INFO:
Disc Title:     SEEKING_JUSTICE_BD_BLUEBIRD
Disc Size:      21 143 676 897 bytes
Protection:     AACS
BD-Java:        Yes
BDInfo:         0.5.2
PLAYLIST REPORT:
Name:                   00004.MPLS
Size:                   261 120 000 bytes
Length:                 0:01:44 (h:m:s)
Total Bitrate:          19,99 Mbps
Description:
VIDEO:
Codec                   Bitrate             Description
-----                   -------             -----------
MPEG-2 Video            18852 kbps          1080i / 25 fps / 16:9
AUDIO:
Codec                           Language        Bitrate         Description
-----                           --------        -------         -----------
Dolby Digital Audio             Italian         192 kbps        2.0 / 48 kHz / 192 kbps / Dolby Surround
FILES:
Name            Time In         Length          Size            Total Bitrate
----            -------         ------          ----            -------------
00004.M2TS      0:00:00.000     0:01:44.519     261 120 000     19 986
CHAPTERS:
Number          Time In         Length          Avg Video Rate  Max 1-Sec Rate  Max 1-Sec Time  Max 5-Sec Rate  Max 5-Sec Time  Max 10Sec Rate  Max 10Sec Time  Avg Frame Size  Max Frame Size  Max Frame Time
------          -------         ------          --------------  --------------  --------------  --------------  --------------  --------------  --------------  --------------  --------------  --------------
1               0:00:00.000     0:01:44.519     18 852 kbps     32 187 kbps     00:00:56.519    25 921 kbps     00:00:56.519    23 313 kbps     00:00:55.440    94 261 bytes    491 152 bytes   00:00:56.799
STREAM DIAGNOSTICS:
File            PID             Type            Codec           Language                Seconds                 Bitrate                 Bytes           Packets
----            ---             ----            -----           --------                --------------          --------------          -------------   -----
00004.M2TS      4113 (0x1011)   0x02            MPEG-2                                  104,400                 18 874                  246 305 170     1 340 144
00004.M2TS      4352 (0x1100)   0x81            AC3             ita (Italian)           104,400                 192                     2 508 288       16 330

<---- END FORUMS PASTE ---->
QUICK SUMMARY:
Disc Title: SEEKING_JUSTICE_BD_BLUEBIRD
Disc Size: 21 143 676 897 bytes
Protection: AACS
BD-Java: Yes
Playlist: 00004.MPLS
Size: 261 120 000 bytes
Length: 0:01:44
Total Bitrate: 19,99 Mbps
Video: MPEG-2 Video / 18852 kbps / 1080i / 25 fps / 16:9
Audio: Italian / Dolby Digital Audio / 2.0 / 48 kHz / 192 kbps / Dolby Surround
********************
PLAYLIST: 00001.MPLS
********************
<--- BEGIN FORUMS PASTE --->

Код:

Total   Video
Title                                                           Codec   Length  Movie Size      Disc Size       Bitrate Bitrate Main Audio Track                          Secondary Audio Track
-----                                                           ------  ------- --------------  --------------  ------- ------- ------------------                        ---------------------
00001.MPLS                                                      AVC     0:00:14 884 736         21 143 676 897  0,50    0,41

Код:

DISC INFO:
Disc Title:     SEEKING_JUSTICE_BD_BLUEBIRD
Disc Size:      21 143 676 897 bytes
Protection:     AACS
BD-Java:        Yes
BDInfo:         0.5.2
PLAYLIST REPORT:
Name:                   00001.MPLS
Size:                   884 736 bytes
Length:                 0:00:14 (h:m:s)
Total Bitrate:          0,50 Mbps
Description:
VIDEO:
Codec                   Bitrate             Description
-----                   -------             -----------
MPEG-4 AVC Video        409 kbps            1080p / 23,976 fps / 16:9 / High Profile 4.1
FILES:
Name            Time In         Length          Size            Total Bitrate
----            -------         ------          ----            -------------
00001.M2TS      0:00:00.000     0:00:13.263     866 304         523
00000.M2TS      0:00:13.263     0:00:01.000     18 432          147
CHAPTERS:
Number          Time In         Length          Avg Video Rate  Max 1-Sec Rate  Max 1-Sec Time  Max 5-Sec Rate  Max 5-Sec Time  Max 10Sec Rate  Max 10Sec Time  Avg Frame Size  Max Frame Size  Max Frame Time
------          -------         ------          --------------  --------------  --------------  --------------  --------------  --------------  --------------  --------------  --------------  --------------
1               0:00:00.000     0:00:14.264     409 kbps        886 kbps        00:00:11.511    605 kbps        00:00:07.382    482 kbps        00:00:03.253    2 132 bytes     44 674 bytes    00:00:07.507
STREAM DIAGNOSTICS:
File            PID             Type            Codec           Language                Seconds                 Bitrate                 Bytes           Packets
----            ---             ----            -----           --------                --------------          --------------          -------------   -----
00001.M2TS      4113 (0x1011)   0x1B            AVC                                     13,138                  438                     719 385         4 049
00000.M2TS      4113 (0x1011)   0x1B            AVC                                     0,876                   88                      9 666           60

<---- END FORUMS PASTE ---->
QUICK SUMMARY:
Disc Title: SEEKING_JUSTICE_BD_BLUEBIRD
Disc Size: 21 143 676 897 bytes
Protection: AACS
BD-Java: Yes
Playlist: 00001.MPLS
Size: 884 736 bytes
Length: 0:00:14
Total Bitrate: 0,50 Mbps
Video: MPEG-4 AVC Video / 409 kbps / 1080p / 23,976 fps / 16:9 / High Profile 4.1
&АДмин
pb.wtf



Скачать Голодный кролик атакует через торрент http://i28.fastpic.ru/big/2012/0213/40/480e5bab6597d9dd3e2441952470aa40.png Скачать фильм Голодный кролик атакует через торрент бесплантно в хорошем качестве Описание: Фильм сфокусируется на человеке, супруга которого становится жертвой жестокого преступления, и он внедряется в тайную организацию ... 4 10 8
Info! Золотая раздача, скачанное не засчитывается.
Торрент: Зарегистрирован [2012-03-05 11:30] · скачан: 115 раз
Статус: √ проверено
Размер: 19.69 GB
Как cкачать? Как скачать Голодный кролик атакует через торрент | qTorrent

28-11-2019 20:33  

Отключить всю рекламу на сайте

    Дорогой пользователь! Огромная просьба, поблагодарите релизера, оцените раздачу и оставьте свои комментарий, если Вы скачали Голодный кролик атакует через торрент бесплатно! Внесите свою лепту в развитие PiratBit!
    Комментировать посты могут только пользователи прошедшие не сложную регистрацию
    Показать сообщения:    

    Голодный кролик атакует через торрент
    Скачать бесплатно Голодный кролик атакует
    Голодный кролик атакует скачать торрент
    Голодный кролик атакует смотреть онлайн
    Cкачать фильм Голодный кролик атакует бесплатно
    Голодный кролик атакует скачать торрент в хорошем качестве
    Голодный кролик атакует смотреть онлайн бесплатно в хорошем качестве


    Вы не можете начинать темы
    Вы не можете отвечать на сообщения
    Вы не можете редактировать свои сообщения
    Вы не можете удалять свои сообщения
    Вы не можете голосовать в опросах
    Вы не можете прикреплять файлы к сообщениям
    Вы можете скачивать файлы