Ссылка на приватное зеркало нашего сайта всего за 1$. Внимание количество ограничено!!!

2 сезон

iTunes

1 сезон

1

2 сезон

2 сезон

iTunes

1 сезон

RePack

30

Ultimate

ВАЖНО

ИГРА 18+

pack

RePack

MK11
pack

Забери бонус

RePack

jed

!!Акция!!

Alien_Rage

RePack

fifa19

RePack

Assassins Creed: Odyssey

RePack

NEED FOR SPEED™ PAYBACK

4 сезон

9 сезон

Бесстыжие 9 сезон

Все сериалы

все сериалы на PB.wtf

RePack

FAR CRY 5
  

Мужские надежды / Muži v naději (Иржи Вейделек / Jiří Vejdělek) [2011, Чехия, Комедия, драма, DVDRip] VO агент смит + Original Cze pb.wtf

Мужские надежды через торрент pb.wtf

Раздают: 1 [ 0 KB/s ]
Размер: 1.37 GB | Добавлен: 8 лет 8 мес. назад | Торрент скачан:254 раза
Скачать  

06-03-2012 15:23 Мужские надежды Скачать торрент  



Мужские надежды / Muži v naději
Год выпуска: 2011
Страна: Чехия
Жанр: комедия
Перевод: Любительский (одноголосый)(агент смит)
Продолжительность: 01:50:14
Cубтитры: русские (отдельно)
Оригинальная аудиодорожка: чешский
Режиссер: Иржи Вейделек / Jiří Vejdělek
В ролях: Иржи Махачек, Болеслав Поливка, Вика Керекеш и другие.
Описание: Симпатичный бонвиван и весельчак Рудольф совершенно уверен: «Женщине просто необходимо бороться за своего мужчину, она должна постоянно стараться удержать его. А главное, женщина не должна с ним скучать!...»
Качество: DVDRip
Формат: AVI
Видео кодек: DivX
Аудио кодек: MP3
Видео: 640x352 (16:9), 25,000 fps, XviD ~1318 kbps avg, 0.234 bit/pixel
Аудио#1: 48 kHz, MPEG Layer 3, 2 ch, ~224.00 kbps avg (Одноголосый закадровый)
Аудио#2: 48 kHz, MPEG Layer 3, 2 ch, ~224.00 kbps avg (Оригинал)
[] [/url]

Код:

Общее
Полное имя : C:\Фильмы и пр\Мужские надежды\Мужские надежды.avi
Формат : AVI
Формат/Информация : Audio Video Interleave
Размер файла : 1,37 Гбайт
Продолжительность : 1 ч. 50 м.
Общий поток : 1780 Кбит/сек
Программа кодирования : VirtualDubMod 1.5.10.2 (build 2540/release)
Библиотека кодирования : VirtualDubMod build 2540/release

Видео
Идентификатор : 0
Формат : MPEG-4 Visual
Профиль формата : Advanced Simple@L5
Параметр BVOP формата : 1
Параметр QPel формата : Нет
Параметр GMC формата : Без точки перехода
Параметр матрицы формата : Default (H.263)
Режим смешивания : Сжатый битовый поток
Идентификатор кодека : XVID
Идентификатор кодека/Подсказка : XviD
Продолжительность : 1 ч. 50 м.
Битрейт : 1318 Кбит/сек
Ширина : 640 пикс.
Высота : 352 пикс.
Соотношение сторон : 16:9
Частота кадров : 25,000 кадр/сек
Цветовое пространство : YUV
Подвыборка цветности : 4:2:0
Битовая глубина : 8 бит
Тип развёртки : Прогрессивная
Метод сжатия : С потерями
Бит/(Пиксели*Кадры) : 0.234
Размер потока : 1,01 Гбайт (74%)
Библиотека кодирования : XviD 64

Аудио #1
Идентификатор : 1
Формат : MPEG Audio
Версия формата : Version 1
Профиль формата : Layer 3
Режим : Joint stereo
Идентификатор кодека : 55
Идентификатор кодека/Подсказка : MP3
Продолжительность : 1 ч. 50 м.
Вид битрейта : Постоянный
Битрейт : 224 Кбит/сек
Каналы : 2 канала
Частота : 48,0 КГц
Метод сжатия : С потерями
Размер потока : 177 Мбайт (13%)
Выравнивание : Соединение по промежуткам
Продолжительность промежутка : 40 мс. (1,00 видеокадр)
Время предзагрузки промежутка : 504 ms

Аудио #2
Идентификатор : 2
Формат : MPEG Audio
Версия формата : Version 1
Профиль формата : Layer 3
Режим : Joint stereo
Расширение режима : MS Stereo
Идентификатор кодека : 55
Идентификатор кодека/Подсказка : MP3
Продолжительность : 1 ч. 50 м.
Вид битрейта : Постоянный
Битрейт : 224 Кбит/сек
Каналы : 2 канала
Частота : 48,0 КГц
Метод сжатия : С потерями
Размер потока : 177 Мбайт (13%)
Выравнивание : Соединение по промежуткам
Продолжительность промежутка : 40 мс. (1,00 видеокадр)
Время предзагрузки промежутка : 504 ms
Библиотека кодирования : LAME3.98.2

pb.wtf



Скачать Мужские надежды через торрент http://i29.fastpic.ru/big/2012/0306/f8/b090c1c3ce2b3baf5e59edc6b330d9f8.jpg Скачать фильм Мужские надежды через торрент бесплантно в хорошем качестве Описание: Симпатичный бонвиван и весельчак Рудольф совершенно уверен: «Женщине просто необходимо бороться за своего мужчину, она должна ... 10 10 6
Info! Золотая раздача, скачанное не засчитывается.
Торрент: Зарегистрирован [2012-03-06 15:23] · скачан: 254 раз
Статус: T временная
Размер: 1.37 GB
Как cкачать? Как скачать Мужские надежды через торрент | qTorrent

28-11-2019 20:33  

Отключить всю рекламу на сайте

13-06-2019 15:02 Мужские надежды Скачать торрент  

Очень хорошая европейская комедия про отношения мужчин и женщин. Редкая подача вполне серьезной темы вполне смешно, не пошло, без эксплуатации. Прекрасные актерские работы, хитовая сцена в бильярдной,очаровательная Вика Керекеш, хорошие съемки,нормальный перевод и озвучивание. Получил массу удовольствия, спасибо за раздачу.pb.wtf



    Дорогой пользователь! Огромная просьба, поблагодарите релизера, оцените раздачу и оставьте свои комментарий, если Вы скачали Мужские надежды через торрент бесплатно! Внесите свою лепту в развитие PiratBit!
    Комментировать посты могут только пользователи прошедшие не сложную регистрацию
    Показать сообщения:    

    Мужские надежды через торрент
    Скачать бесплатно Мужские надежды
    Мужские надежды скачать торрент
    Мужские надежды смотреть онлайн
    Cкачать фильм Мужские надежды бесплатно
    Мужские надежды скачать торрент в хорошем качестве
    Мужские надежды смотреть онлайн бесплатно в хорошем качестве


    Вы не можете начинать темы
    Вы не можете отвечать на сообщения
    Вы не можете редактировать свои сообщения
    Вы не можете удалять свои сообщения
    Вы не можете голосовать в опросах
    Вы не можете прикреплять файлы к сообщениям
    Вы можете скачивать файлы