новый адрес
Ссылка на приватное зеркало всего за 1$. Внимание количество ограничено!!!

iTunes

1+1

iTunes

мы

WEB-DL

1

iTunes

Чернобыль

iTunes

Ральф против интернета

Лицензия

ПШазам

Лицензия

Оно 2

Лицензия

30
pack

Вам бонус

ВАЖНО

!!Акция!!

Alien_RageХит недели

RePack

Resident Evil 21

ИГРА 18+

pack

RePack

jed

!!Акция!!

Alien_Rage

RePack

fifa19

RePack

Assassins Creed: Odyssey

RePack

NEED FOR SPEED™ PAYBACK

3 сезон

9 сезон

Бесстыжие 9 сезон

Все сериалы

все сериалы на PB.wtf

RePack

FAR CRY 5
Ребята, катастрофически не хватает 1900р. для оплаты серверов за Октябрь (всвязи с блокировками трафик упал в 3 раза), 1-2р., выручайте.
  

Последняя любовь на Земле / Perfect Sense (Дэвид МакКензи / David McKenzie) [2011, Дания, Швеция, Великобритания, Ирландия, Драма, Мелодрама, HDRip] MVO [ лицензия ] pb.wtf

Последняя любовь на Земле через торрент pb.wtf

Размер: 1.37 GB | Добавлен: 7 лет 8 мес. назад | Торрент скачан:413 раз
Скачать  

07-03-2012 15:51 Последняя любовь на Земле Скачать торрент  


Последняя любовь на Земле / Perfect Sense«Что останется, когда мир лишится всех чувств?»


Страна: Дания , Швеция , Великобритания , Ирландия
Жанр: Драма, Мелодрама
Год выпуска: 2011
Продолжительность: 01:32:10
Перевод: Профессиональный (многоголосый закадровый) [лицензия]
Cубтитры: нет
Режиссер: Дэвид МакКензи / David McKenzie
В ролях: Юэн МакГрегор, Ева Грин, Конни Нильсен, Стивен Диллэйн, Юэн Бремнер, Аластер Маккензи
Описание: Земля столкнулась с небывалым бедствием. В разных странах, на каждом континенте люди в самом буквальном смысле лишаются чувств каждого из пяти, одного за другим Майкл и Сьюзан считают свою связь мимолетной, но когда становится ясно, что мир неумолимо приближается к концу, герои понимают им уже не прожить друг без друга. Но что останется, когда пропадут последние чувства?
КиноПоиск / IMDb
Качество видео: HDRip [рип с BDRip 720p]
Формат видео: AVI
Видео кодек: XviD
Аудио кодек: AC3

Видео: XviD, 720 x 304 (2.368) at 24.000 fps MPEG-4 Visual at 1830 Кбит/сек
Аудио: АС3, 48000 Hz, 6 каналов, 256 kb/s


Код:

Общее
Полное имя                               : D:\Кино\P.Ljubov.na.zeme.2011.P.HDRip.avi
Формат                                   : AVI
Формат/Информация                        : Audio Video Interleave
Размер файла                             : 1,37 Гбайт
Продолжительность                        : 1 ч. 32 м.
Общий поток                              : 2130 Кбит/сек
Программа кодирования                    : VirtualDubMod 1.5.10.3 | www.virtualdub-fr.org || (build 2550/release)
Библиотека кодирования                   : VirtualDubMod build 2550/release

Видео
Идентификатор                            : 0
Формат                                   : MPEG-4 Visual
Идентификатор кодека                     : XVID
Идентификатор кодека/Подсказка           : XviD
Продолжительность                        : 1 ч. 32 м.
Source_Duration/String                   : 46 м.
Битрейт                                  : 1830 Кбит/сек
Ширина                                   : 720 пикселей
Высота                                   : 304 пикселя
Соотношение сторон                       : 2,35:1
Частота кадров                           : 24,000 кадра/сек
Цветовое пространство                    : YUV
Субдискретизация насыщенности            : 4:2:0
Метод сжатия                             : С потерями
Бит/(Пиксели*Кадры)                      : 0.348
Размер потока                            : 611 Мбайт (43%)

Аудио
Идентификатор                            : 1
Формат                                   : AC-3
Формат/Информация                        : Audio Coding 3
Идентификатор кодека                     : 2000
Продолжительность                        : 1 ч. 32 м.
Source_Duration/String                   : 46 м.
Вид битрейта                             : Постоянный
Битрейт                                  : 256 Кбит/сек
Каналы                                   : 6 каналов
Частота                                  : 48,0 КГц
Метод сжатия                             : С потерями
Размер потока                            : 85,4 Мбайт (6%)
Выравнивание                             : Соединение по промежуткам
Продолжительность промежутка             : 42  мс. (1,00 видеокадр)
Время предзагрузки промежутка            : 500  мс.



pb.wtf



Скачать Последняя любовь на Земле через торрент http://you-logo.ru/pictures/d5bbea47312015b52942288485fc417a.png Скачать фильм Последняя любовь на Земле через торрент бесплантно в хорошем качестве Описание: Земля столкнулась с небывалым бедствием. В разных странах, на каждом континенте люди в самом буквальном смысле лишаются чувств ... 10 10 4
Info! Золотая раздача, скачанное не засчитывается.
Торрент: Зарегистрирован [2012-03-07 15:51] · скачан: 413 раз
Статус: √ проверено
Размер: 1.37 GB
Как cкачать? Как скачать Последняя любовь на Земле через торрент | qTorrent

% Раздел Тема Автор DL S | L
Арт-хаус и авторское кино [ 1.35 GB ] Последняя любовь на Земле / Perfect Sense [2011 DVDRip лицензия] SD Скачать
1 | 0
Арт-хаус и авторское кино [ 2.18 GB ] Последняя любовь на Земле / Perfect Sense [2011 BDRip-AVC] MVO + Original + Sub potroks Скачать
1 | 0
Арт-хаус и авторское кино [ 6.51 GB ] Последняя любовь на Земле / Perfect Sense [2011 DVD9] R5 Вольга» voovaz Скачать
1 | 0

28-11-2019 20:33  

Отключить всю рекламу на сайте

01-05-2012 13:43 Последняя любовь на Земле Скачать торрент  

Звук----ну полнейшее ФУФЛО,откуда ты только выпукал его?! Аффтора с раздачей-ФТОППКУ !!!pb.wtf



    Дорогой пользователь! Огромная просьба, поблагодарите релизера, оцените раздачу и оставьте свои комментарий, если Вы скачали Последняя любовь на Земле через торрент бесплатно! Внесите свою лепту в развитие PiratBit!
    Комментировать посты могут только пользователи прошедшие не сложную регистрацию
    Показать сообщения:    

    Последняя любовь на Земле через торрент
    Скачать бесплатно Последняя любовь на Земле
    Последняя любовь на Земле скачать торрент
    Последняя любовь на Земле смотреть онлайн
    Cкачать фильм Последняя любовь на Земле бесплатно
    Последняя любовь на Земле скачать торрент в хорошем качестве
    Последняя любовь на Земле смотреть онлайн бесплатно в хорошем качестве


    Вы не можете начинать темы
    Вы не можете отвечать на сообщения
    Вы не можете редактировать свои сообщения
    Вы не можете удалять свои сообщения
    Вы не можете голосовать в опросах
    Вы не можете прикреплять файлы к сообщениям
    Вы можете скачивать файлы