Ссылка на приватное зеркало нашего сайта всего за 1$. Внимание количество ограничено!!!

2 сезон

iTunes

1 сезон

1

2 сезон

2 сезон

iTunes

1 сезон

RePack

30

Ultimate

ВАЖНО

ИГРА 18+

pack

RePack

MK11
pack

Забери бонус

RePack

jed

!!Акция!!

Alien_Rage

RePack

fifa19

RePack

Assassins Creed: Odyssey

RePack

NEED FOR SPEED™ PAYBACK

4 сезон

9 сезон

Бесстыжие 9 сезон

Все сериалы

все сериалы на PB.wtf

RePack

FAR CRY 5
  

Незабываемое / Unforgettable / Сезон: 1 / Серии: 1-2, 12-19 (22) (Нильс Арден Оплев) [2011, детектив, драма, HDTVRip] DVO Tomas&Minami pb.wtf

Незабываемое через торрент pb.wtf

Размер: 3.98 GB | Добавлен: 8 лет 7 мес. назад | Торрент скачан:6 раз
Скачать  

07-03-2012 22:48 Незабываемое Скачать торрент  

Незабываемое / Unforgettable
Год выпуска: 2011
Страна: США
Жанр: детектив, драма
Продолжительность: ~00:43:00
Перевод: Любительский (двухголосый, закадровый) (Tomas&Minami)
Субтитры: Отсутствуют
Режиссер: Нильс Арден Оплев
В ролях: Поппи Монтгомери, Дилан Уолш, Майкл Гэстон, Кевин О. Ранкин, Дая Вайдя, Майкл Дж. Бёрг, Элизер Мейер, Мелоди Уайсс, Роксанна Хоуп, Шоун Майкл
Описание: Драма о женщине-детективе Кэрри Уэлс, обладающей уникальной способностью помнить все, что когда-либо с ней происходило. Она прекрасно выполняет работу благодарая своему дару, но для личной жизни это настоящее проклятие. Правда, одну вещь Кэрри все же не помнит — день, когда ее сестра была убита.
Похожие раздачи: Unforgettable
Качество: HDTVRip
Формат: AVI
Видео кодек: XviD
Аудио кодек: MP3
Видео: 624*352 (16:9), ~1017 Kbps, 23.976 fps, ~0.190 bit/pixel
Аудио Rus: 192 Kbps, 48000 Hz, 2 ch
Аудио Eng: 142 Kbps, 48000 Hz, 2 ch
Релиз от: Tomas&Minami
Общее
Полное имя : F:\Раздачи\Раздачи\Unforgettable (Tomas&Minami)\Unforgettable_s01e12.Tomas&Minami.avi
Формат : AVI
Формат/Информация : Audio Video Interleave
Размер файла : 410 Мбайт
Продолжительность : 42 м.
Режим общего битрейта : Переменный
Общий поток : 1352 Кбит/сек
Программа кодирования : VirtualDubMod 1.5.10.2 (build 2540/release)
Библиотека кодирования : VirtualDubMod build 2540/release

Видео
Идентификатор : 0
Формат : MPEG-4 Visual
Профиль формата : Advanced Simple@L5
Параметр BVOP формата : 2
Параметр QPel формата : Нет
Параметр GMC формата : Без точки перехода
Параметр матрицы формата : Default (H.263)
Идентификатор кодека : XVID
Идентификатор кодека/Подсказка : XviD
Продолжительность : 42 м.
Битрейт : 1000 Кбит/сек
Ширина : 624 пикселя
Высота : 352 пикселя
Соотношение сторон : 16:9
Частота кадров : 23,976 кадра/сек
Цветовое пространство : YUV
Субдискретизация насыщенности : 4:2:0
Битовая глубина : 8 бит
Тип развёртки : Прогрессивная
Метод сжатия : С потерями
Бит/(Пиксели*Кадры) : 0.190
Размер потока : 303 Мбайт (74%)
Библиотека кодирования : XviD 70

Аудио #1
Идентификатор : 1
Формат : MPEG Audio
Версия формата : Version 1
Профиль формата : Layer 3
Режим : Joint stereo
Идентификатор кодека : 55
Идентификатор кодека/Подсказка : MP3
Продолжительность : 42 м.
Вид битрейта : Постоянный
Битрейт : 192 Кбит/сек
Каналы : 2 канала
Частота : 48,0 КГц
Метод сжатия : С потерями
Размер потока : 58,2 Мбайт (14%)
Выравнивание : Соединение по промежуткам
Продолжительность промежутка : 42 мс. (1,00 видеокадр)
Время предзагрузки промежутка : 504 мс.

Аудио #2
Идентификатор : 2
Формат : MPEG Audio
Версия формата : Version 1
Профиль формата : Layer 3
Идентификатор кодека : 55
Идентификатор кодека/Подсказка : MP3
Продолжительность : 42 м.
Вид битрейта : Переменный
Битрейт : 142 Кбит/сек
Каналы : 2 канала
Частота : 48,0 КГц
Метод сжатия : С потерями
Размер потока : 43,1 Мбайт (11%)
Выравнивание : Соединение по промежуткам
Продолжительность промежутка : 24 мс. (0,58 видеокадр)
Время предзагрузки промежутка : 443 мс.

Внимание! Раздача ведётся путём добавления новых серий; при каждом добавлении создётся новый торрент. Чтобы начать докачку новой серии, пользователям необходимо сделать следующее:
(1) остановить скачивание,
(2) удалить старый торрент у себя из клиента (старые серии удалять не надо),
(3) скачать новый торрент и запустить его у себя в клиенте вместо старого, при этом указать клиенту путь в старую папку куда и должно происходить скачивание новых серий.

Ваш клиент при этом должен произвести хеширование (проверку) старой папки (если не производит сам - помогите ему сделать это), и будет докачивать только те серии которых у вас ещё нет. Старые серии при этом не удаляются, а продолжают раздаваться!

Eсли вы уже удалили старые серии, то предотвратить повторную закачку старых серий можно, отжав галочку в соответсвующих местах при запуске нового торрента. По возможности, желательно не удалять старые серии как можно дольше чтобы релизёр не столько продолжал раздавать старые серии, а смог сконцентрироваться на новых.
Данная раздача призвана продолжить приостановленую озвучку от ROLLINGHEADПредудущие серии (1-13) можно найти здесь.Добавлена 19 серия!pb.wtf



Скачать Незабываемое через торрент http://pic.kartinco.top/images/2011/lwcdxgt7pn.jpg Скачать фильм Незабываемое через торрент бесплантно в хорошем качестве Описание: Драма о женщине-детективе Кэрри Уэлс, обладающей уникальной способностью помнить все, что когда-либо с ней происходило. Она ... 5 10 1
Info! Золотая раздача, скачанное не засчитывается.
Торрент: Зарегистрирован [2012-04-22 00:42] · скачан: 6 раз
Статус: √ проверено
Размер: 3.98 GB
Как cкачать? Как скачать Незабываемое через торрент | qTorrent



Последний раз редактировалось: Messa-fan (2012-04-22 00:41), всего редактировалось 2 раз(а)

28-11-2019 20:33  

Отключить всю рекламу на сайте

21-03-2012 11:10 Незабываемое Скачать торрент  

Добавлена 17 серия!pb.wtf



11-04-2012 13:25 Незабываемое Скачать торрент  

Добавлены 1, 2, 18 серии!pb.wtf



22-04-2012 00:42 Незабываемое Скачать торрент  

Добавлена 19 серия!pb.wtf



    Дорогой пользователь! Огромная просьба, поблагодарите релизера, оцените раздачу и оставьте свои комментарий, если Вы скачали Незабываемое через торрент бесплатно! Внесите свою лепту в развитие PiratBit!
    Комментировать посты могут только пользователи прошедшие не сложную регистрацию
    Показать сообщения:    

    Незабываемое через торрент
    Скачать бесплатно Незабываемое
    Незабываемое скачать торрент
    Незабываемое смотреть онлайн
    Cкачать фильм Незабываемое бесплатно
    Незабываемое скачать торрент в хорошем качестве
    Незабываемое смотреть онлайн бесплатно в хорошем качестве


    Вы не можете начинать темы
    Вы не можете отвечать на сообщения
    Вы не можете редактировать свои сообщения
    Вы не можете удалять свои сообщения
    Вы не можете голосовать в опросах
    Вы не можете прикреплять файлы к сообщениям
    Вы можете скачивать файлы