Доктор Стрэндж

Лицензия

Добыча

Дубляж

Уэнсдэй

1 сезон

Тор

Дубляж

В эфире

Дубляж

Там, где раки поют

MVO

Властелин колец

1 сезон

Deluxe

pack

Рекомендуем

30

Пиратка

ВАЖНО

ВАЖНО

Ghostwire

Пиратка

jed

RePack

nioh2

RePack

RDR2

RePack

NEED FOR SPEED™ PAYBACK

RePack

скачать торрент

Кинопоиск HD

Острые козырьки 6 сезон

6 сезон

FAR CRY 6

RePack

скачать торрент

Лицензия

скачать торрент

MVO

1

1 сезон

скачать торрент

1 сезон

скачать торрент

Лицензия

  

Свободные / Footloose (Крэйг Брюэр) [2011 г., драма, комедия, музыка, BDRip (720p)]

Свободные через торрент pb.wtf

Размер: 5.68 GB | Добавлен: 10 лет назад | Торрент скачан:65 раз
Смотреть онлайн | Скачать   

09-03-2012 09:05 Свободные Скачать торрент  

Свободные / Footloose

Год выпуска: 2011
Страна: США
Жанр: драма, комедия, музыка
Продолжительность: 01:53:22
Перевод: Профессиональный (полное дублирование) [Лицензия]

Режиссер: Крэйг Брюэр
Продюссер: Гари Барбер, Крэйг Зэдан, Роджер Бернбаум
Сценарий: Дин Питчфорд, Крэйг Брюэр

В ролях: Кенни Вормолд, Джулианна Хаф, Деннис Куэйд, Энди МакДауэлл, Майлз Теллер, Рэй МакКиннон, Патрик Флюгер, Ким Диккенс, Зиа Колон, Ser'Darius Blain, Вероника Саркисова

Описание: Рен МакКормак переезжает с семьей из мегаполиса в тихий провинциальный городок, в котором запрещены рок-музыка и танцы. Заручившись поддержкой своего приятеля и юной возлюбленной, герой решает изменить старомодные порядки, установленные преподобным отцом Муром, и заставить благочестивых горожан «тряхнуть стариной».

Качество: BDRip (720p)
Формат: MKV
Видео кодек: AVC
Аудио кодек: AC3
Видео: 1280x544 (2.35), 23.976 fps, 5 744 Kbps (0.344 bit/pixel)
Аудио#1: 48.0 KHz, 6 ch, 640 Kbps, CBR (Russian)
Аудио#2: 48.0 KHz, 6 ch, 640 Kbps, CBR (English)
Субтитры: Russian, Ukrainianскриншот   скриншот   скриншот   скриншот   скриншот  
Общее
Уникальный идентификатор : 182526336969486374200776274699707231150 (0x89514B3688E8147FBC4B5631CE0C2BAE)
Полное имя : D:\Фильмы\Свободные.BDRip.720p.mkv
Формат : Matroska
Версия формата : Version 2
Размер файла : 5,68 Гбайт
Продолжительность : 1 ч. 53 м.
Общий поток : 7169 Кбит/сек
Название фильма : [uniongang.tv] by sstonecold
Дата кодирования : UTC 2012-03-08 17:10:37
Программа кодирования : mkvmerge v5.2.0 ('I can't explain') built on Dec 18 2011 18:12:03
Библиотека кодирования : libebml v1.2.3 + libmatroska v1.3.0

Видео
Идентификатор : 1
Формат : AVC
Формат/Информация : Advanced Video Codec
Профиль формата : [email protected]
Параметр CABAC формата : Да
Параметр ReFrames формата : 12 кадров
Идентификатор кодека : V_MPEG4/ISO/AVC
Продолжительность : 1 ч. 53 м.
Битрейт : 5747 Кбит/сек
Ширина : 1280 пикселей
Высота : 544 пикселя
Соотношение сторон : 2,35:1
Частота кадров : 23,976 кадра/сек
Цветовое пространство : YUV
Субдискретизация насыщенности : 4:2:0
Битовая глубина : 8 бит
Тип развёртки : Прогрессивная
Бит/(Пиксели*Кадры) : 0.344
Размер потока : 4,55 Гбайт (80%)
Библиотека кодирования : x264 core 120 r2164 da19765
Настройки программы : cabac=1 / ref=12 / deblock=1:-3:-3 / analyse=0x3:0x113 / me=tesa / subme=9 / psy=1 / psy_rd=1.11:0.00 / mixed_ref=1 / me_range=16 / chroma_me=1 / trellis=2 / 8x8dct=1 / cqm=0 / deadzone=21,11 / fast_pskip=0 / chroma_qp_offset=-2 / threads=6 / sliced_threads=0 / nr=0 / decimate=0 / interlaced=0 / bluray_compat=0 / constrained_intra=0 / bframes=7 / b_pyramid=2 / b_adapt=2 / b_bias=0 / direct=3 / weightb=1 / open_gop=0 / weightp=2 / keyint=250 / keyint_min=23 / scenecut=40 / intra_refresh=0 / rc=crf / mbtree=0 / crf=16.7 / qcomp=0.55 / qpmin=0 / qpmax=69 / qpstep=4 / ip_ratio=1.40 / pb_ratio=1.30 / aq=1:0.65
Язык : English
Default : Да
Forced : Нет

Аудио #1
Идентификатор : 2
Формат : AC-3
Формат/Информация : Audio Coding 3
Расширение режима : CM (complete main)
Идентификатор кодека : A_AC3
Продолжительность : 1 ч. 53 м.
Вид битрейта : Постоянный
Битрейт : 640 Кбит/сек
Каналы : 6 каналов
Расположение каналов : Front: L C R, Side: L R, LFE
Частота : 48,0 КГц
Битовая глубина : 16 бит
Метод сжатия : С потерями
Размер потока : 519 Мбайт (9%)
Язык : Russian
Default : Да
Forced : Нет

Аудио #2
Идентификатор : 3
Формат : AC-3
Формат/Информация : Audio Coding 3
Расширение режима : CM (complete main)
Идентификатор кодека : A_AC3
Продолжительность : 1 ч. 53 м.
Вид битрейта : Постоянный
Битрейт : 640 Кбит/сек
Каналы : 6 каналов
Расположение каналов : Front: L C R, Side: L R, LFE
Частота : 48,0 КГц
Битовая глубина : 16 бит
Метод сжатия : С потерями
Размер потока : 519 Мбайт (9%)
Язык : English
Default : Нет
Forced : Нет

Текст #1
Идентификатор : 4
Формат : UTF-8
Идентификатор кодека : S_TEXT/UTF8
Идентификатор кодека/Информация : UTF-8 Plain Text
Язык : Russian
Default : Да
Forced : Нет

Текст #2
Идентификатор : 5
Формат : UTF-8
Идентификатор кодека : S_TEXT/UTF8
Идентификатор кодека/Информация : UTF-8 Plain Text
Язык : Ukrainian
Default : Нет
Forced : Нет

Текст #3
Идентификатор : 6
Формат : UTF-8
Идентификатор кодека : S_TEXT/UTF8
Идентификатор кодека/Информация : UTF-8 Plain Text
Язык : English
Default : Нет
Forced : Нет

Меню
00:00:00.000 : :00:00:00.000
00:06:29.639 : :00:06:29.639
00:10:28.670 : :00:10:28.670
00:14:39.087 : :00:14:39.087
00:17:34.929 : :00:17:34.929
00:23:02.673 : :00:23:02.673
00:28:31.084 : :00:28:31.084
00:31:17.125 : :00:31:17.125
00:39:10.306 : :00:39:10.306
00:45:47.411 : :00:45:47.411
00:49:44.315 : :00:49:44.315
00:58:26.420 : :00:58:26.420
01:04:42.504 : :01:04:42.504
01:09:56.734 : :01:09:56.734
01:16:10.775 : :01:16:10.775
01:23:52.236 : :01:23:52.236
01:31:06.878 : :01:31:06.878
01:35:53.915 : :01:35:53.915
01:41:12.942 : :01:41:12.942
01:48:28.127 : :01:48:28.127



Скачать Свободные через торрент http://i27.fastpic.ru/big/2012/0309/e6/adaa7a5e34967c40f386317ab214dce6.jpg Скачать, смотреть онлайн Свободные бесплантно в хорошем качестве Описание: Рен МакКормак переезжает с семьей из мегаполиса в тихий провинциальный городок, в котором запрещены рок-музыка и танцы. ... 10 10 2
Info! Золотая раздача, скачанное не засчитывается.
Торрент: Зарегистрирован [2012-03-09 09:05] · скачан: 65 раз
Статус: √ проверено
Размер: 5.68 GB
Как cкачать? Как скачать Свободные через торрент | UTorrent

% Раздел Тема Автор DL S | L
Фильмы [HD 720p, 1080p] (Хороший звук DUB, MVO) [ 13.06 GB ] Свободные / Footloose | DUB | 1080p msltel Скачать
1 | 0
Фильмы [HD 720p, 1080p] (Хороший звук DUB, MVO) [ 4.66 GB ] Свободные / Footloose | DUB | 720p msltel Скачать
1 | 0
Фильмы (DVD фильмы) [ 6.26 GB ] Свободные / Footloose | | Свободные / Footloose (Крэйг Брюэр / Craig Brewer voovaz Скачать
1 | 0

28-11-2019 20:33  


Отключить вcю реклaмy на сайте, в т.ч. и в плеере онлайн просмотра!

    Дорогой пользователь! Огромная просьба, поблагодарите релизера, оцените раздачу и оставьте свои комментарий, если Вы скачали Свободные через торрент бесплатно!!
    Комментировать посты могут только пользователи прошедшие не сложную регистрацию
    Показать сообщения:    


    Свободные через торрент
    Скачать бесплатно Свободные
    Свободные скачать торрент
    Свободные смотреть онлайн
    Cкачать фильм Свободные бесплатно
    Свободные скачать торрент в хорошем качестве
    Свободные смотреть онлайн бесплатно в хорошем качестве
    Вы не можете начинать темы
    Вы не можете отвечать на сообщения
    Вы не можете редактировать свои сообщения
    Вы не можете удалять свои сообщения
    Вы не можете голосовать в опросах
    Вы не можете прикреплять файлы к сообщениям
    Вы можете скачивать файлы
    Свободные / Footloose [2011 г., драма, комедия, музыка, BDRip ] смотреть онлайн, скачать торрент picoco.icu