Ссылка на приватное зеркало нашего сайта всего за 1$. Внимание количество ограничено!!!

2 сезон

iTunes

1 сезон

1

iTunes

iTunes

iTunes

1 сезон

RePack

30

ИГРА 18+

pack

ВАЖНО

!!Акция!!

Alien_RageХит недели

RePack

MK11
pack

Забери бонус

RePack

jed

!!Акция!!

Alien_Rage

RePack

fifa19

RePack

Assassins Creed: Odyssey

RePack

NEED FOR SPEED™ PAYBACK

4 сезон

9 сезон

Бесстыжие 9 сезон

Все сериалы

все сериалы на PB.wtf

RePack

FAR CRY 5
  

Подержанные львы / Secondhand Lions (Тим МакКэнлис / Tim McCanlies) [2003 г., драма, комедия, семейный, BDRip (720p)] pb.wtf

Подержанные львы через торрент pb.wtf

Размер: 5.5 GB | Добавлен: 8 лет 7 мес. назад | Торрент скачан:46 раз
Скачать  

09-03-2012 13:33 Подержанные львы Скачать торрент  

Подержанные львы / Secondhand Lions

Год выпуска: 2003
Страна: США
Жанр: драма, комедия, семейный
Продолжительность: 01:49:10
Перевод: Профессиональный (многоголосый, закадровый)
Субтитры: русские, английские

Режиссер: Тим МакКэнлис / Tim McCanlies

В ролях: Майкл Кейн, Роберт Дювалл, Хэйли Джоэл Осмент, Кира Седжвик, Никки Кэтт, Джош Лукас, Майкл О’Нил, Дирдри О’Коннелл, Эрик Бальфур, Кристиан Кэйн

Описание: Последнее, что хотел юный герой картины, по имени Уолтер, так это «застрять» на все летние каникулы на ферме у своих родственников. К тому же, владельцы фермы, два пожилых дяди мальчика, Гарт и Хаб, оказались стариками «с приветом». Например, для них абсолютно в порядке вещей заказать по почте... настоящего африканского льва! Поначалу Уолтер был шокирован странностями своих родственников, но со временем ему становится известно о тайнах прошлого. Ходят слухи, что почтенные дяди были известными грабителями банков (а может что и похуже), ибо денег у них - превеликое множество! Вскоре Уолтер узнаёт удивительную историю о приключениях в экзотических землях, где будут и похищенная принцесса, и арабские шейхи и, естественно, потерянные сокровища!

Качество: BDRip (720p)
Формат: MKV
Видео кодек: H.26x
Аудио кодек: AC3
Видео: 1280x690 at 23.976 fps, 1.85:1, x264@L4.1, ~5980 kbps avg
Аудио#1: 48 kHz, AC3, 5.1 ch, ~448.00 kbps avg |Многоголосый закадровый, R5|
Аудио#2: 48 kHz, AC3, 5.1 ch, ~640.00 kbps avg |eng|

Общее
Уникальный идентификатор : 211428736931415993877718450444633250201 (0x9F0FB18CE321A06ABA5A47F0284A1999)
Формат : Matroska
Версия формата : Version 2
Размер файла : 5,50 Гбайт
Продолжительность : 1 ч. 49 м.
Общий поток : 7212 Кбит/сек
Название фильма : Secondhand Lions (2003) release by shartm
Дата кодирования : UTC 2012-02-13 05:12:04
Программа кодирования : mkvmerge v5.3.0 ('I could have danced') built on Feb 9 2012 10:38:07
Библиотека кодирования : libebml v1.2.3 + libmatroska v1.3.0

Видео
Идентификатор : 1
Формат : AVC
Формат/Информация : Advanced Video Codec
Профиль формата : High@L4.1
Параметр CABAC формата : Да
Параметр ReFrames формата : 8 кадров
Идентификатор кодека : V_MPEG4/ISO/AVC
Продолжительность : 1 ч. 49 м.
Вид битрейта : Переменный
Битрейт : 5980 Кбит/сек
Максимальный битрейт : 50,0 Мбит/сек
Ширина : 1280 пикс.
Высота : 690 пикс.
Соотношение сторон : 1,855
Частота кадров : 23,976 кадр/сек
Цветовое пространство : YUV
Подвыборка цветности : 4:2:0
Битовая глубина : 8 бит
Тип развёртки : Прогрессивная
Бит/(Пиксели*Кадры) : 0.282
Размер потока : 4,56 Гбайт (83%)
Заголовок : Secondhand Lions.2003.720p.Blu-Ray.[shartm]
Библиотека кодирования : x264 core 120 r2146kMod bcd41db
Настройки программы : cabac=1 / ref=8 / deblock=1:-2:-2 / analyse=0x3:0x113 / me=umh / subme=11 / psy=1 / fade_compensate=0.00 / psy_rd=0.80:0.20 / mixed_ref=1 / me_range=32 / chroma_me=1 / trellis=2 / 8x8dct=1 / cqm=0 / deadzone=21,11 / fast_pskip=0 / chroma_qp_offset=-3 / threads=9 / sliced_threads=0 / nr=0 / decimate=1 / interlaced=0 / bluray_compat=0 / constrained_intra=0 / bframes=12 / b_pyramid=2 / b_adapt=2 / b_bias=0 / direct=1 / weightb=1 / open_gop=0 / weightp=2 / keyint=240 / keyint_min=22 / scenecut=40 / intra_refresh=0 / rc_lookahead=40 / rc=crf / mbtree=0 / crf=17.0000 / qcomp=0.60 / qpmin=0 / qpmax=69 / qpstep=4 / vbv_maxrate=50000 / vbv_bufsize=62500 / crf_max=0.0 / nal_hrd=vbr / ip_ratio=1.40 / pb_ratio=1.30 / aq=3:0.90
Язык : English

Аудио #1
Идентификатор : 2
Формат : AC-3
Формат/Информация : Audio Coding 3
Расширение режима : CM (complete main)
Идентификатор кодека : A_AC3
Продолжительность : 1 ч. 49 м.
Вид битрейта : Постоянный
Битрейт : 448 Кбит/сек
Каналы : 6 каналов
Расположение каналов : Front: L C R, Side: L R, LFE
Частота : 48,0 КГц
Битовая глубина : 16 бит
Метод сжатия : С потерями
Размер потока : 350 Мбайт (6%)
Заголовок : AC3 5.1 448 kbps Многоголосый закадровый - R5
Язык : Russian

Аудио #2
Идентификатор : 3
Формат : AC-3
Формат/Информация : Audio Coding 3
Расширение режима : CM (complete main)
Идентификатор кодека : A_AC3
Продолжительность : 1 ч. 49 м.
Вид битрейта : Постоянный
Битрейт : 640 Кбит/сек
Каналы : 6 каналов
Расположение каналов : Front: L C R, Side: L R, LFE
Частота : 48,0 КГц
Битовая глубина : 16 бит
Метод сжатия : С потерями
Размер потока : 500 Мбайт (9%)
Заголовок : AC3 5.1 640 kbps
Язык : English

Текст #1
Идентификатор : 4
Формат : UTF-8
Идентификатор кодека : S_TEXT/UTF8
Идентификатор кодека/Информация : UTF-8 Plain Text
Язык : Russian

Текст #2
Идентификатор : 5
Формат : UTF-8
Идентификатор кодека : S_TEXT/UTF8
Идентификатор кодека/Информация : UTF-8 Plain Text
Язык : English

Текст #3
Идентификатор : 6
Формат : UTF-8
Идентификатор кодека : S_TEXT/UTF8
Идентификатор кодека/Информация : UTF-8 Plain Text
Заголовок : SDH
Язык : English
pb.wtf



Скачать Подержанные львы через торрент http://pic.kartinco.top/images/2011/n9huch5o6s.jpg Скачать фильм Подержанные львы через торрент бесплантно в хорошем качестве Описание: Последнее, что хотел юный герой картины, по имени Уолтер, так это «застрять» на все летние каникулы на ферме у своих ... 5 10 2
Info! Золотая раздача, скачанное не засчитывается.
Торрент: Зарегистрирован [2012-03-09 13:33] · скачан: 46 раз
Статус: √ проверено
Размер: 5.5 GB
Как cкачать? Как скачать Подержанные львы через торрент | qTorrent

% Раздел Тема Автор DL S | L
Фильмы 2001-2005 [ 3.6 GB ] Подержанные львы / Secondhand Lions [2003 HDRip + Оригинал] sigizmund Скачать
1 | 0
Фильмы 2001-2005 [ 1.37 GB ] Подержанные львы / Secondhand Lions [2003 HDRip] markfiter Скачать
1 | 0
Фильмы 2001-2005 [ 895 MB ] Подержанные львы / Secondhand Lions [2003 DVDRip] Vlad. Скачать
1 | 0


Последний раз редактировалось: markfiter (2012-03-09 22:14), всего редактировалось 1 раз

28-11-2019 20:33  

Отключить всю рекламу на сайте

09-03-2012 22:13 Подержанные львы Скачать торрент  

markfiter
Нужно добавить media info
Для изменения статуса раздачи, после исправления уведомить в со ссылкой на раздачуpb.wtf



    Дорогой пользователь! Огромная просьба, поблагодарите релизера, оцените раздачу и оставьте свои комментарий, если Вы скачали Подержанные львы через торрент бесплатно! Внесите свою лепту в развитие PiratBit!
    Комментировать посты могут только пользователи прошедшие не сложную регистрацию
    Показать сообщения:    

    Подержанные львы через торрент
    Скачать бесплатно Подержанные львы
    Подержанные львы скачать торрент
    Подержанные львы смотреть онлайн
    Cкачать фильм Подержанные львы бесплатно
    Подержанные львы скачать торрент в хорошем качестве
    Подержанные львы смотреть онлайн бесплатно в хорошем качестве


    Вы не можете начинать темы
    Вы не можете отвечать на сообщения
    Вы не можете редактировать свои сообщения
    Вы не можете удалять свои сообщения
    Вы не можете голосовать в опросах
    Вы не можете прикреплять файлы к сообщениям
    Вы можете скачивать файлы