2 сезон

iTunes

MVO

1

2 сезон

iTunes

iTunes

1 сезон

RePack

30

Новинка

ВАЖНО

ИГРА 18+

pack

RePack

MK11
pack

Легкие деньги

RePack

jed

RePack

fifa19

RePack

RDR2

RePack

NEED FOR SPEED™ PAYBACK

4 сезон

9 сезон

Бесстыжие 9 сезон

Все сериалы

все сериалы на PB.wtf

RePack

FAR CRY 5

Anonymous, добрый день, мы не успеваем собрать деньги на оплату серверов за декабрь и январь, помогите нам пожалуйста в это трудное время. В качестве благодарности мы отключим Вам всю рекламу на сайте (укажите свой ник в строку Ваше имя)!

×
  
Magnet ссылка

Дикие Карибы / Wild Caribbean / Части: 1-4 из 4 (Карен Басс, Стефен Лайл, Фиона Питчер) [2007 г., документальный, природа, HDTV (720p)] pb.wtf

Дикие Карибы через торрент pb.wtf

Размер: 4.53 GB | Добавлен: 8 лет 10 мес. назад | Торрент скачан:160 раз
Скачать  

09-03-2012 21:46 Дикие Карибы Скачать торрент  

Дикие Карибы / Wild Caribbean

Год выпуска: 2007
Страна: Великобритания
Жанр: документальный, природа
Продолжительность: 4 х ~00:49:00
Перевод: Профессиональный (одноголосый)

Режиссер: Карен Басс, Стефен Лайл, Фиона Питчер

Описание:
Часть 1. Острова сокровищ / Treasure Islands
Спокойные голубые воды Карибского моря выглядят безмятежно манящими. Но на протяжении многих веков находящиеся там огромные коралловые рифы являются смертельными ловушками для отважных моряков. Ураганы, штормы и атаки пиратов послужили причиной гибели огромного количества кораблей, обломки которых лежат в прибрежной зоне. Останки кораблей, в свою очередь, являются домом для обитателей морских глубин и рифов.
Часть 2. Рифы и затонувшие корабли / Reefs and Wrecks
Жаркое солнце и прозрачное море - вот тот карибский коктейль, который каждый год привлекает на острова тысячи туристов. В этих теплых водах сложились идеальные условия для развития одной из богатейших экосистем на планете - коралловых рифов. Но в этом сказочном мире много опасностей. На карибские рифы натыкались тысячи кораблей. Пиратов и их золотых дублонов давно уже нет, но здесь по-прежнему можно найти сокровища - живые сокровища карибских рифов.
Часть 3. Зона ураганов / Hurricane Hell
Карибы - залитый солнцем рай, поражающий многообразием красок и форм. Это воплощение нашей мечты о необитаемом острове. Но каждый год эта мечта превращается в кошмар, когда за несколько месяцев на Карибы обрушивается в среднем шесть ураганов. Каким образом животным удается пережить ураганы, которые превращают карибский рай в сущий ад?
Часть 4. Таинственные берега / Secret Shores
Это самые таинственные берега в Карибском море. Его "дикая" западная граница, побережье Центральной Америки. Его протяженность более 2700 километров от Панамы до Мексики. Вдоль побережья разбросаны тысячи островов и рифов. И на всех из них есть жизнь.

Качество: HDTV (720p)
Формат: MKV
Видео кодек: x264
Аудио кодек: AC3
Видео: 1280x720, MPEG4 Video (H264), 25.00fps, ~2670 Kbps
Аудио#1: AC3, ~448 kbps, 2ch, 48KHz |eng|
Аудио#2: AC3, ~192 kbps, 2ch, 48KHz |rus|

Format : Matroska
Format version : Version 2
File size : 1.13 GiB
Duration : 49mn 0s
Overall bit rate : 3 310 Kbps
Encoded date : UTC 2011-10-15 17:14:03

Video

Format : AVC
Format/Info : Advanced Video Codec
Format profile : High@L5.0
Format settings, CABAC : Yes
Format settings, ReFrames : 16 frames
Muxing mode : Header stripping
Codec ID : V_MPEG4/ISO/AVC
Duration : 49mn 0s
Bit rate : 2 670 Kbps
Width : 1 280 pixels
Height : 720 pixels
Display aspect ratio : 16:9
Frame rate : 25.000 fps
Color space : YUV
Chroma subsampling : 4:2:0
Bit depth : 8 bits
Scan type : Progressive
Bits/(Pixel*Frame) : 0.116
Stream size : 913 MiB (79%)
Writing library : x264 core 79 r1342kMod e8501ef

Audio #1

Format : AC-3
Format/Info : Audio Coding 3
Mode extension : CM (complete main)
Muxing mode : Header stripping
Codec ID : A_AC3
Duration : 49mn 0s
Bit rate mode : Constant
Bit rate : 448 Kbps
Channel(s) : 2 channels
Channel positions : Front: L R
Sampling rate : 48.0 KHz
Bit depth : 16 bits
Compression mode : Lossy
Stream size : 157 MiB (14%)

Audio #2

Format : AC-3
Format/Info : Audio Coding 3
Mode extension : CM (complete main)
Muxing mode : Header stripping
Codec ID : A_AC3
Duration : 49mn 0s
Bit rate mode : Constant
Bit rate : 192 Kbps
Channel(s) : 2 channels
Channel positions : Front: L R
Sampling rate : 48.0 KHz
Bit depth : 16 bits
Compression mode : Lossy
Stream size : 67.3 MiB (6%)
Language : Russian
pb.wtf



Скачать Дикие Карибы через торрент http://i30.fastpic.ru/big/2012/0310/a1/5241454a4c7a0a3754b9a8c467e114a1.jpg Скачать фильм Дикие Карибы через торрент бесплантно в хорошем качестве Описание:Часть Острова сокровищ / Treasure IslandsСпокойные голубые воды Карибского моря выглядят безмятежно манящими. Но на протяжении ... 10 10 2
Info! Золотая раздача, скачанное не засчитывается.
Торрент: Зарегистрирован [2012-03-09 21:46] · скачан: 160 раз
Статус: √ проверено
Размер: 4.53 GB
Как cкачать? Как скачать Дикие Карибы через торрент | UTorrent

28-11-2019 20:33  

Отключить всю рекламу на сайте

    Дорогой пользователь! Огромная просьба, поблагодарите релизера, оцените раздачу и оставьте свои комментарий, если Вы скачали Дикие Карибы через торрент бесплатно! Внесите свою лепту в развитие PiratBit!
    Комментировать посты могут только пользователи прошедшие не сложную регистрацию
    Показать сообщения:    

    Дикие Карибы через торрент
    Скачать бесплатно Дикие Карибы
    Дикие Карибы скачать торрент
    Дикие Карибы смотреть онлайн
    Cкачать фильм Дикие Карибы бесплатно
    Дикие Карибы скачать торрент в хорошем качестве
    Дикие Карибы смотреть онлайн бесплатно в хорошем качестве


    Вы не можете начинать темы
    Вы не можете отвечать на сообщения
    Вы не можете редактировать свои сообщения
    Вы не можете удалять свои сообщения
    Вы не можете голосовать в опросах
    Вы не можете прикреплять файлы к сообщениям
    Вы можете скачивать файлы