Ссылка на приватное зеркало нашего сайта всего за 1$. Внимание количество ограничено!!!

2 сезон

iTunes

1 сезон

1

iTunes

iTunes

iTunes

1 сезон

RePack

30

ИГРА 18+

pack

ВАЖНО

!!Акция!!

Alien_RageХит недели

RePack

MK11
pack

Забери бонус

RePack

jed

!!Акция!!

Alien_Rage

RePack

fifa19

RePack

Assassins Creed: Odyssey

RePack

NEED FOR SPEED™ PAYBACK

4 сезон

9 сезон

Бесстыжие 9 сезон

Все сериалы

все сериалы на PB.wtf

RePack

FAR CRY 5
  

Проклятая школа / F (Йоханнес Робертс) [2010 г., ужасы, триллер, BDRip (1080p)] pb.wtf

Проклятая школа через торрент pb.wtf

Размер: 6.1 GB | Добавлен: 8 лет 7 мес. назад | Торрент скачан:38 раз
Скачать  

09-03-2012 23:12 Проклятая школа Скачать торрент  

Проклятая школа / F

Год выпуска: 2010
Страна: Великобритания
Жанр: ужасы, триллер
Продолжительность: 79 мин.

Режиссер: Йоханнес Робертс
Продюссер: Paul Blacknell, Эрнест Риера, Патрик Фишер
Сценарий: Йоханнес Робертс

Мировой рейтинг IMDB 4.70 (1 538)


В ролях: Дэвид Скофилд, Элиза Беннетт, Рут Геммелль, Джульетт Обри, Эмма Клисби, Финлэй Робертсон, Роксанна МакКи, Том Мэннион, Макс Фоулер, Майк Бернсайд

Описание:

Похожие раздачи: Проклятая школа

Качество: BDRip (1080p)
Формат: MKV
Видео кодек: H.26x
Аудио кодек: AC3
Видео: AVC, 1920x1080 (16:9), 25.000 fps, 10.9 Mbps (0.211 bit/pixel)
Аудио#1: #1: AC-3, 48.0 KHz, 6 ch, 448 Kbps, CBR (Russian)
Аудио#2: #2: AC-3, 48.0 KHz, 2 ch, 192 Kbps, CBR (English)
Субтитры: English, Russian






General
Unique ID : 239511381909534601487478491905952372986 (0xB43036D8B3C6FBA1B5E3959E650CD8FA)
Complete name : D:\Finish\Проклятая школа.mkv
Format : Matroska
Format version : Version 1
File size : 6.10 GiB
Duration : 1h 15mn
Overall bit rate : 11.6 Mbps
Movie name : Проклятая школа / F (2010) BDRip 1080p - firebit.org
Encoded date : UTC 2012-03-07 17:29:25
Writing application : mkvmerge v2.3.0 ('Freak U') built on Sep 8 2008 18:32:16
Writing library : libebml v0.7.7 + libmatroska v0.8.1

Video
ID : 1
Format : AVC
Format/Info : Advanced Video Codec
Format profile : High@L4.1
Format settings, CABAC : Yes
Format settings, ReFrames : 4 frames
Codec ID : V_MPEG4/ISO/AVC
Duration : 1h 15mn
Bit rate : 10.9 Mbps
Width : 1 920 pixels
Height : 1 080 pixels
Display aspect ratio : 16:9
Frame rate : 25.000 fps
Color space : YUV
Chroma subsampling : 4:2:0
Bit depth : 8 bits
Scan type : Progressive
Bits/(Pixel*Frame) : 0.211
Stream size : 5.64 GiB (92%)
Title : http://firebit.org
Writing library : x264 core 112 r1834 a51816a
Encoding settings : cabac=1 / ref=4 / deblock=1:0:0 / analyse=0x3:0x133 / me=umh / subme=7 / psy=1 / psy_rd=1.00:0.00 / mixed_ref=1 / me_range=16 / chroma_me=1 / trellis=1 / 8x8dct=1 / cqm=0 / deadzone=21,11 / fast_pskip=0 / chroma_qp_offset=-2 / threads=12 / sliced_threads=0 / nr=0 / decimate=1 / interlaced=0 / constrained_intra=0 / bframes=3 / b_pyramid=2 / b_adapt=1 / b_bias=0 / direct=1 / weightb=1 / open_gop=0 / weightp=2 / keyint=250 / keyint_min=25 / scenecut=40 / intra_refresh=0 / rc_lookahead=40 / rc=2pass / mbtree=1 / bitrate=10947 / ratetol=1.0 / qcomp=0.60 / qpmin=0 / qpmax=51 / qpstep=4 / cplxblur=20.0 / qblur=0.5 / ip_ratio=1.40 / aq=1:1.00
Language : English
Default : Yes
Forced : No

Audio #1
ID : 2
Format : AC-3
Format/Info : Audio Coding 3
Mode extension : CM (complete main)
Codec ID : A_AC3
Duration : 1h 15mn
Bit rate mode : Constant
Bit rate : 448 Kbps
Channel(s) : 6 channels
Channel positions : Front: L C R, Side: L R, LFE
Sampling rate : 48.0 KHz
Bit depth : 16 bits
Compression mode : Lossy
Stream size : 242 MiB (4%)
Title : http://firebit.org
Language : Russian
Default : Yes
Forced : No

Audio #2
ID : 3
Format : AC-3
Format/Info : Audio Coding 3
Mode extension : CM (complete main)
Codec ID : A_AC3
Duration : 1h 15mn
Bit rate mode : Constant
Bit rate : 192 Kbps
Channel(s) : 2 channels
Channel positions : Front: L R
Sampling rate : 48.0 KHz
Bit depth : 16 bits
Compression mode : Lossy
Stream size : 104 MiB (2%)
Title : http://firebit.org
Language : English
Default : No
Forced : No

Text #1
ID : 4
Format : UTF-8
Codec ID : S_TEXT/UTF8
Codec ID/Info : UTF-8 Plain Text
Title : http://firebit.org
Language : English
Default : Yes
Forced : No

Text #2
ID : 5
Format : UTF-8
Codec ID : S_TEXT/UTF8
Codec ID/Info : UTF-8 Plain Text
Title : http://firebit.org
Language : Russian
Default : No
Forced : No

Text #3
ID : 6
Format : UTF-8
Codec ID : S_TEXT/UTF8
Codec ID/Info : UTF-8 Plain Text
Title : http://firebit.org
Language : English
Default : No
Forced : No

Text #4
ID : 7
Format : UTF-8
Codec ID : S_TEXT/UTF8
Codec ID/Info : UTF-8 Plain Text
Title : http://firebit.org
Language : English
Default : No
Forced : No
pb.wtf



Скачать Проклятая школа через торрент http://2.firepic.org/2/images/2012-02/26/nadgwqoz9h2a.jpg Скачать фильм Проклятая школа через торрент бесплантно в хорошем качестве Описание: Похожие раздачи: Проклятая ... 4 10 9
Info! Золотая раздача, скачанное не засчитывается.
Торрент: Зарегистрирован [2012-03-09 23:12] · скачан: 38 раз
Статус: √ проверено
Размер: 6.1 GB
Как cкачать? Как скачать Проклятая школа через торрент | qTorrent

% Раздел Тема Автор DL S | L
Фильмы [HD 720p, 1080p] (Хороший звук DUB, MVO) [ 4.57 GB ] Проклятая школа / F [2010 BDRip лицензия] ~Relizer~ Скачать
1 | 0
Фильмы 2010 [ 1.37 GB ] Проклятая школа / F [2010 HDRip] MVO |лицензия| Original -=Cherry=- Скачать
1 | 0

28-11-2019 20:33  

Отключить всю рекламу на сайте

    Дорогой пользователь! Огромная просьба, поблагодарите релизера, оцените раздачу и оставьте свои комментарий, если Вы скачали Проклятая школа через торрент бесплатно! Внесите свою лепту в развитие PiratBit!
    Комментировать посты могут только пользователи прошедшие не сложную регистрацию
    Показать сообщения:    

    Проклятая школа через торрент
    Скачать бесплатно Проклятая школа
    Проклятая школа скачать торрент
    Проклятая школа смотреть онлайн
    Cкачать фильм Проклятая школа бесплатно
    Проклятая школа скачать торрент в хорошем качестве
    Проклятая школа смотреть онлайн бесплатно в хорошем качестве


    Вы не можете начинать темы
    Вы не можете отвечать на сообщения
    Вы не можете редактировать свои сообщения
    Вы не можете удалять свои сообщения
    Вы не можете голосовать в опросах
    Вы не можете прикреплять файлы к сообщениям
    Вы можете скачивать файлы