Ссылка на приватное зеркало нашего сайта всего за 1$. Внимание количество ограничено!!!

2 сезон

iTunes

1 сезон

1

iTunes

iTunes

iTunes

1 сезон

RePack

30

ИГРА 18+

pack

ВАЖНО

!!Акция!!

Alien_RageХит недели

RePack

MK11
pack

Забери бонус

RePack

jed

!!Акция!!

Alien_Rage

RePack

fifa19

RePack

Assassins Creed: Odyssey

RePack

NEED FOR SPEED™ PAYBACK

4 сезон

9 сезон

Бесстыжие 9 сезон

Все сериалы

все сериалы на PB.wtf

RePack

FAR CRY 5
  

Элвин и бурундуки 3 / Alvin and the Chipmunks: Chip-Wrecked (Майк Митчел) [2011 г., Мультфильм, фэнтези, комедия, семейный, музыка, HDRip, лицензия]2.04 GB pb.wtf

Элвин и бурундуки 3 через торрент pb.wtf

Размер: 2.04 GB | Добавлен: 8 лет 7 мес. назад | Торрент скачан:227 раз
Скачать  

10-03-2012 13:09 Элвин и бурундуки 3 Скачать торрент  

Элвин и бурундуки 3 / Alvin and the Chipmunks: Chip-Wrecked

Год выпуска: 2011
Страна: США / 20th Century Fox
Жанр: Мультфильм, фэнтези, комедия, семейный, музыка
Продолжительность: 01:27:29
Перевод: Дублированное [лицензия]
Тип релиза: Лицензия

Режиссер: Майк Митчел

В ролях: Джейсон Ли, Дэвид Кросс, Дженни Слейт, Джастин Лонг, Мэттью Грей, Гублер Джесси, МакКартни, Эми Полер, Анна Фэрис, Кристина Эпплгейт, Алан Тьюдик

Описание: Приключения троицы непоседливых братьев-бурундуков продолжаются! Элвин, Саймон и Теодор, а также их подруги бурундушки, просто не могут оставаться в стороне от различного рода неприятностей, сулящих им новые увлекательные приключения. Что на этот раз уготовила судьба нашим героям, и как они выпутаются из очередной передряги — вот в чём вопрос.

Качество: HDRip
Формат: AVI
Видео кодек: XviD
Аудио кодек: AC3
Видео: 1280x688, 23 fps, 2949 Kbit/s
Аудио#1: AC3, 48000 Hz, 6 каналов, 384 kbit/s
General
Complete name : D:\Merged Volume 'Локальный диск ' (E)\Jelvin.i.burunduki.3.2011.D.HDRip.2100MB.avi
Format : AVI
Format/Info : Audio Video Interleave
Format profile : OpenDML
File size : 2.04 GiB
Duration : 1h 27mn
Overall bit rate : 3 345 Kbps
Writing application : VirtualDubMod 1.5.10.2 (build 2540/release)
Writing library : VirtualDubMod build 2540/release

Video
ID : 0
Format : MPEG-4 Visual
Format profile : Advanced Simple@L5
Format settings, BVOP : 2
Format settings, QPel : No
Format settings, GMC : No warppoints
Format settings, Matrix : Default (H.263)
Codec ID : XVID
Codec ID/Hint : XviD
Duration : 1h 27mn
Bit rate : 2 949 Kbps
Width : 1 280 pixels
Height : 688 pixels
Display aspect ratio : 1.860
Frame rate : 23.976 fps
Color space : YUV
Chroma subsampling : 4:2:0
Bit depth : 8 bits
Scan type : Progressive
Compression mode : Lossy
Bits/(Pixel*Frame) : 0.140
Stream size : 1.80 GiB (88%)
Writing library : XviD 1.2.1 (UTC 2008-12-04)

Audio
ID : 1
Format : AC-3
Format/Info : Audio Coding 3
Mode extension : CM (complete main)
Codec ID : 2000
Duration : 1h 27mn
Bit rate mode : Constant
Bit rate : 384 Kbps
Channel(s) : 6 channels
Channel positions : Front: L C R, Side: L R, LFE
Sampling rate : 48.0 KHz
Bit depth : 16 bits
Compression mode : Lossy
Stream size : 239 MiB (11%)
Alignment : Split accross interleaves
Interleave, duration : 42 ms (1.00 video frame)
Interleave, preload duration : 500 ms
pb.wtf



Скачать Элвин и бурундуки 3 через торрент http://piratpic.net/images/23616150873905040913.png Скачать фильм Элвин и бурундуки 3 через торрент бесплантно в хорошем качестве Описание: Приключения троицы непоседливых братьев-бурундуков продолжаются! Элвин, Саймон и Теодор, а также их подруги бурундушки, просто не ... 4.9 10 8
Info! Золотая раздача, скачанное не засчитывается.
Торрент: Зарегистрирован [2012-03-10 13:09] · скачан: 227 раз
Статус: √ проверено
Размер: 2.04 GB
Как cкачать? Как скачать Элвин и бурундуки 3 через торрент | qTorrent

28-11-2019 20:33  

Отключить всю рекламу на сайте

    Дорогой пользователь! Огромная просьба, поблагодарите релизера, оцените раздачу и оставьте свои комментарий, если Вы скачали Элвин и бурундуки 3 через торрент бесплатно! Внесите свою лепту в развитие PiratBit!
    Комментировать посты могут только пользователи прошедшие не сложную регистрацию
    Показать сообщения:    

    Элвин и бурундуки 3 через торрент
    Скачать бесплатно Элвин и бурундуки 3
    Элвин и бурундуки 3 скачать торрент
    Элвин и бурундуки 3 смотреть онлайн
    Cкачать фильм Элвин и бурундуки 3 бесплатно
    Элвин и бурундуки 3 скачать торрент в хорошем качестве
    Элвин и бурундуки 3 смотреть онлайн бесплатно в хорошем качестве


    Вы не можете начинать темы
    Вы не можете отвечать на сообщения
    Вы не можете редактировать свои сообщения
    Вы не можете удалять свои сообщения
    Вы не можете голосовать в опросах
    Вы не можете прикреплять файлы к сообщениям
    Вы можете скачивать файлы