2 сезон

iTunes

1 сезон

1

iTunes

iTunes

iTunes

1 сезон

RePack

30

ИГРА 18+

pack

ВАЖНО

!!Акция!!

Alien_RageХит недели

RePack

MK11
pack

Забери бонус

RePack

jed

!!Акция!!

Alien_Rage

RePack

fifa19

RePack

Assassins Creed: Odyssey

RePack

NEED FOR SPEED™ PAYBACK

4 сезон

9 сезон

Бесстыжие 9 сезон

Все сериалы

все сериалы на PB.wtf

RePack

FAR CRY 5
  

Малышка на миллион / Million Dollar Baby (Клинт Иствуд) [2004 г., драма, спорт, BDRip (720p), лицензия] pb.wtf

Малышка на миллион через торрент pb.wtf

Размер: 9.39 GB | Добавлен: 8 лет 7 мес. назад | Торрент скачан:24 раза
Скачать  

11-03-2012 12:56 Малышка на миллион Скачать торрент  

Малышка на миллион / Million Dollar Baby

Год выпуска: 2004
Страна: США
Жанр: драма, спорт
Продолжительность: 02:12:31
Перевод: Дублированное [лицензия]
Тип релиза: Лицензия

Режиссер: Клинт Иствуд

В ролях: Клинт Иствуд, Хилари Суэнк, Морган Фриман, Джей Барушель, Майк Колтер, Люсия Рижкер, Брайан Ф. О’Бирн, Энтони Маки, Марго Мартиндейл, Рики Линдхоум

Описание: Тренер по боксу Фрэнк Данн переживает не лучшие времена. Из-за сложных отношений со своей дочерью он долгое время не позволял себе привязываться к кому-либо, боясь вновь пережить потерю. Однако все меняется, когда в его тренировочном зале появляется Мэгги. Существуя в постоянной борьбе с окружающим миром, Мэгги выработала в себе непоколебимую стойкость духа и волю к победе. Но больше всего на свете она хочет, чтобы в нее поверили.

Фрэнк не хочет брать на себя ответственность, однако упорство Мэгги побеждает. В водовороте жизненных перипетий эти двое осознают, что стремятся к одному и тому же: забыть прошлое и обрести семью. Впереди их ждет главное сражение жизни, для которого им потребуется собрать в своих сердцах столько мужества, сколько раньше они и представить себе не могли.

Качество: BDRip (720p)Источник: Million Dollar Baby 2004 1080p ITA Blu-ray VC-1 DTS-HD MA5.1-CtrlHD
Формат: MKV
Видео кодек: Другой MPEG4
Аудио кодек: AC3
Видео: Russian: 48 kHz, AC3, 3/2 (L,C,R,l,r) + LFE ch, ~448 kbps avg |Дублированное, R5|
Аудио#1: Russian: 48 kHz, AC3, 2/0 (L,R) ch, ~192 kbps avg |Одноголосый закадровый, С.Визгунов|
Аудио#2: Russian: 48 kHz, DTS, 3/2 (L,C,R,l,r) + LFE ch, ~1536 kbps avg |Одноголосый закадровый, Ю.Живов|
Аудио#3: Russian: 48 kHz, DTS, 3/2 (L,C,R,l,r) + LFE ch, ~1536 kbps avg |Одноголосый закадровый, Jakob Bellmann|
Аудио#4: English: 48 kHz, DTS, 3/2 (L,C,R,l,r) + LFE ch, ~1536 kbps avg

Субтитры: Russian, English
General
Unique ID : 246141438749620762654955229479723599127 (0xB92D1DE2F36AD843A2BC347517A00517)
Complete name : D:\Merged Volume 'Локальный диск ' (E)\фильмы\Million.Dollar.Baby.2004.720p.BluRay.Rus.Eng.HDCLUB.mkv
Format : Matroska
Format version : Version 2
File size : 9.39 GiB
Duration : 2h 12mn
Overall bit rate : 10.1 Mbps
Encoded date : UTC 2012-03-11 07:49:27
Writing application : mkvmerge v3.4.0 ('Rapunzel') сборка от May 15 2010 09:38:20
Writing library : libebml v0.8.0 + libmatroska v0.9.0

Video
ID : 1
Format : AVC
Format/Info : Advanced Video Codec
Format profile : High@L4.1
Format settings, CABAC : Yes
Format settings, ReFrames : 12 frames
Codec ID : V_MPEG4/ISO/AVC
Duration : 2h 12mn
Bit rate : 4 975 Kbps
Width : 1 280 pixels
Height : 534 pixels
Display aspect ratio : 2.40:1
Frame rate : 23.976 fps
Color space : YUV
Chroma subsampling : 4:2:0
Bit depth : 8 bits
Scan type : Progressive
Bits/(Pixel*Frame) : 0.304
Stream size : 4.42 GiB (47%)
Title : Million.Dollar.Baby.2004.BluRay.720p.DTS.x264-CHD
Writing library : x264 core 102 r1666 d058f37
Encoding settings : cabac=1 / ref=12 / deblock=1:-3:-3 / analyse=0x3:0x113 / me=umh / subme=10 / psy=1 / psy_rd=1.05:0.10 / mixed_ref=1 / me_range=32 / chroma_me=1 / trellis=2 / 8x8dct=1 / cqm=2 / deadzone=21,11 / fast_pskip=0 / chroma_qp_offset=-2 / threads=6 / sliced_threads=0 / nr=0 / decimate=1 / interlaced=0 / constrained_intra=0 / bframes=6 / b_pyramid=2 / b_adapt=2 / b_bias=0 / direct=3 / weightb=1 / open_gop=0 / weightp=2 / keyint=250 / keyint_min=25 / scenecut=40 / intra_refresh=0 / rc_lookahead=40 / rc=2pass / mbtree=1 / bitrate=4975 / ratetol=1.0 / qcomp=0.60 / qpmin=10 / qpmax=51 / qpstep=4 / cplxblur=20.0 / qblur=0.5 / vbv_maxrate=50000 / vbv_bufsize=50000 / ip_ratio=1.40 / aq=1:0.80 / nal_hrd=none
Language : English
Default : No
Forced : No

Audio #1
ID : 2
Format : AC-3
Format/Info : Audio Coding 3
Mode extension : CM (complete main)
Codec ID : A_AC3
Duration : 2h 12mn
Bit rate mode : Constant
Bit rate : 448 Kbps
Channel(s) : 6 channels
Channel positions : Front: L C R, Side: L R, LFE
Sampling rate : 48.0 KHz
Bit depth : 16 bits
Compression mode : Lossy
Stream size : 425 MiB (4%)
Title : AC3 5.1 @ 448 kbps - Дубляж, R5
Language : Russian
Default : Yes
Forced : No

Audio #2
ID : 3
Format : AC-3
Format/Info : Audio Coding 3
Mode extension : CM (complete main)
Codec ID : A_AC3
Duration : 2h 12mn
Bit rate mode : Constant
Bit rate : 192 Kbps
Channel(s) : 2 channels
Channel positions : Front: L R
Sampling rate : 48.0 KHz
Bit depth : 16 bits
Compression mode : Lossy
Stream size : 182 MiB (2%)
Title : AC3 2.0 @ 192 kbps - Одноголосый закадровый, С.Визгунов
Language : Russian
Default : No
Forced : No

Audio #3
ID : 4
Format : DTS
Format/Info : Digital Theater Systems
Codec ID : A_DTS
Duration : 2h 12mn
Bit rate mode : Constant
Bit rate : 1 510 Kbps
Channel(s) : 6 channels
Channel positions : Front: L C R, Side: L R, LFE
Sampling rate : 48.0 KHz
Bit depth : 16 bits
Compression mode : Lossy
Stream size : 1.40 GiB (15%)
Title : DTS 5.1 @ 1536 kbps - Одноголосый закадровый, Ю.Живов
Language : Russian
Default : No
Forced : No

Audio #4
ID : 5
Format : DTS
Format/Info : Digital Theater Systems
Codec ID : A_DTS
Duration : 2h 12mn
Bit rate mode : Constant
Bit rate : 1 510 Kbps
Channel(s) : 6 channels
Channel positions : Front: L C R, Side: L R, LFE
Sampling rate : 48.0 KHz
Bit depth : 16 bits
Compression mode : Lossy
Stream size : 1.40 GiB (15%)
Title : DTS 5.1 @ 1536 kbps - Одноголосый закадровый, Jakob Bellmann
Language : Russian
Default : No
Forced : No

Audio #5
ID : 6
Format : DTS
Format/Info : Digital Theater Systems
Codec ID : A_DTS
Duration : 2h 12mn
Bit rate mode : Constant
Bit rate : 1 510 Kbps
Channel(s) : 6 channels
Channel positions : Front: L C R, Side: L R, LFE
Sampling rate : 48.0 KHz
Bit depth : 16 bits
Compression mode : Lossy
Stream size : 1.40 GiB (15%)
Title : DTS 5.1 @ 1536 kbps
Language : English
Default : No
Forced : No

Text #1
ID : 7
Format : UTF-8
Codec ID : S_TEXT/UTF8
Codec ID/Info : UTF-8 Plain Text
Language : Russian
Default : No
Forced : No

Text #2
ID : 8
Format : UTF-8
Codec ID : S_TEXT/UTF8
Codec ID/Info : UTF-8 Plain Text
Language : English
Default : No
Forced : No
pb.wtf



Скачать Малышка на миллион через торрент http://piratpic.net/images/80388213973464738928.jpg Скачать фильм Малышка на миллион через торрент бесплантно в хорошем качестве Описание: Тренер по боксу Фрэнк Данн переживает не лучшие времена. Из-за сложных отношений со своей дочерью он долгое время не позволял ... 10 10 2
Info! Золотая раздача, скачанное не засчитывается.
Торрент: Зарегистрирован [2012-03-11 13:01] · скачан: 24 раз
Статус: √ проверено
Размер: 9.39 GB
Как cкачать? Как скачать Малышка на миллион через торрент | qTorrent

% Раздел Тема Автор DL S | L
Фильмы 2001-2005 [ 2.9 GB ] Малышка на миллион / Million Dollar Baby [2004 BDRip-AVC] DUB _KaisiK_ Скачать
1 | 0


Последний раз редактировалось: ~Relizer~ (2012-03-11 17:53), всего редактировалось 2 раз(а)

28-11-2019 20:33  

Отключить всю рекламу на сайте

11-03-2012 13:00 Малышка на миллион Скачать торрент  

Премия «ОСКАР» за Лучший фильм, Лучшую женскую роль (Хилари Суэнк), Лучшую мужскую роль второго плана (Морган Фриман), Лучшего режиссера (Клинт Иствуд), 2005г.

Специальный приз Национального совета обозревателей Клинту Иствуду как продюсеру, режиссёру, актёру и композитору, 2 «Золотых сателлита» — за главную женскую роль в драме и адаптированный сценарий, «Имидж» за второплановую мужскую роль, «Давид» Донателло» в Италии, приз Японской киноакадемии, «Голубая лента» и премия «Кинема дзюнпо» за лучший иностранный фильм по итогам 2005 года, «Серебряная лента» в Италии лучшему иностранному режиссёру по итогам 2005 года.
pb.wtf



11-03-2012 13:18 Малышка на миллион Скачать торрент  

Один из лучшихpb.wtf



11-03-2012 16:06 Малышка на миллион Скачать торрент  

~Relizer~
Когда научишься указывать на наличие субтитров?
Для изменения статуса раздачи, после исправления уведомить в со ссылкой на раздачуpb.wtf



    Дорогой пользователь! Огромная просьба, поблагодарите релизера, оцените раздачу и оставьте свои комментарий, если Вы скачали Малышка на миллион через торрент бесплатно! Внесите свою лепту в развитие PiratBit!
    Комментировать посты могут только пользователи прошедшие не сложную регистрацию
    Показать сообщения:    

    Малышка на миллион через торрент
    Скачать бесплатно Малышка на миллион
    Малышка на миллион скачать торрент
    Малышка на миллион смотреть онлайн
    Cкачать фильм Малышка на миллион бесплатно
    Малышка на миллион скачать торрент в хорошем качестве
    Малышка на миллион смотреть онлайн бесплатно в хорошем качестве


    Вы не можете начинать темы
    Вы не можете отвечать на сообщения
    Вы не можете редактировать свои сообщения
    Вы не можете удалять свои сообщения
    Вы не можете голосовать в опросах
    Вы не можете прикреплять файлы к сообщениям
    Вы можете скачивать файлы