1 сезон

1 сезон

iTunes

1

КиноПоиск HD

Кинопоиск HD

iTunes

13

1 сезон

RePack

30

Ultimate

ВАЖНО

ИГРА 18+

pack

RePack

MK11
pack

Легкие деньги

RePack

jed

RePack

fifa19

RePack

RDR2

RePack

NEED FOR SPEED™ PAYBACK

4 сезон

9 сезон

Бесстыжие 9 сезон

Все сериалы

все сериалы на PB.wtf

RePack

FAR CRY 5
  
Magnet ссылка

Поцелуй навылет / Kiss Kiss Bang Bang (Шейн Блэк) [2005 г., Боевик, триллер, комедия, криминал, детектив, HDRip-AVC] pb.wtf

Поцелуй навылет через торрент pb.wtf

Размер: 768 MB | Добавлен: 9 лет 1 мес. назад | Торрент скачан:74 раза
Скачать  

12-03-2012 12:51 Поцелуй навылет Скачать торрент  


Поцелуй навылет / Kiss Kiss Bang Bang

Год выпуска: 2005
Страна: США
Жанр: Боевик, триллер, комедия, криминал, детектив
Продолжительность: 01:42:42
Перевод: Профессиональный (полное дублирование) [Лицензия]
Режиссер: Шейн Блэк
Бюджет: $15 000 000
Премьера в мире: 14 мая 2005

В ролях: Роберт Дауни мл., Вэл Килмер, Мишель Монахэн, Корбин Бернсен, Дэш Майок, Ларри Миллер, Рокмонд Данбар, Шаннин Соссамон, Анджела Линдвэлл, Indio Falconer Downey, Эриель Винтер, Дуан Карнахан, Джош Ричманн, Марта Хэкетт, Нэнси Фиш, Билл МакАдамс мл., Таня Ричерт, Джэйк МакКиннон, Стефани Пирсон

Зайдя на Рождество в нью-йоркский магазин игрушек, симпатичный вор Гарри Локхарт случайно нажимает на сигнализацию и, спасаясь бегством от полиции, попадает на кинопробы в детективный фильм. Продюсеру нравится его напористость, и он приглашает Гарри в Голливуд. Готовит Локхарта к кинопробе Перри ван Шрайк, настоящий сыщик, оказавшийся к тому же еще и гомосексуалистом. На роль главной героини претендует актриса Хармони Фэйт, с которой Гарри связывает общая любовь к детективным историям Джонни Госсамера. Однажды ночью Перри берет Гарри с собой на задание, и в итоге им приходится заняться расследованием убийства некоей женщины. Затем, как и в романе Госсамера, возникает еще одна детективная линия: сестра Хармони совершает самоубийство, которое, как выясняется, имеет прямое отношение к обнаруженному Перри и Гарри трупу…
Качество: HDRip-AVC
Формат: MKV
Видео кодек: H.264x
Аудио кодек: AC3
Видео: 720х304 (2:40:1), 23.976 fps, AVC (х264) High@L4.1, ~ 915 Kbps, 0.174 bit/pixel
Аудио: 48 kHz, AC3 Dolby Digital, 3/2 (L,C,R,l,r) + LFE ch, ~ 128 kbps avg

Релиз от | | by Dean24
Видео:
Идентификатор: 1
Формат: AVC
Формат/Информация: Advanced Video Codec
Профиль формата: High@L4.1
Параметр CABAC формата: Да
Параметр ReFrames формата: 8 кадров
Идентификатор кодека: V_MPEG4/ISO/AVC
Продолжительность: 1 ч. 42 м.
Битрейт: 915 Кбит/сек
Ширина: 720 пикс.
Высота: 304 пикс.
Соотношение сторон: 2,40:1
Соотношение сторон в оригинале: 2,40:1
Режим частоты кадров: Переменный
Частота кадров: 23,976 кадр/сек
Цветовое пространство: YUV
Подвыборка цветности: 4:2:0
Битовая глубина: 8 бит
Тип развёртки: Прогрессивная
Бит/(Пиксели*Кадры): 0.174
Размер потока: 659 Мбайт (86%)
Библиотека кодирования: x264 core 116 r2019M 9cc407d
Настройки программы: cabac=1 / ref=9 / deblock=1:-2:-2 / analyse=0x3:0x133 / me=umh / subme=9 / psy=1 / psy_rd=1.00:0.20 / mixed_ref=1 / me_range=32 / chroma_me=1 / trellis=1 / 8x8dct=1 / cqm=0 / deadzone=21,11 / fast_pskip=1 / chroma_qp_offset=-3 / threads=6 / sliced_threads=0 / nr=0 / decimate=1 / interlaced=0 / bluray_compat=0 / constrained_intra=0 / bframes=9 / b_pyramid=1 / b_adapt=2 / b_bias=0 / direct=3 / weightb=1 / open_gop=0 / weightp=2 / keyint=230 / keyint_min=23 / scenecut=40 / intra_refresh=0 / rc_lookahead=60 / rc=2pass / mbtree=1 / bitrate=915 / ratetol=1.0 / qcomp=0.60 / qpmin=0 / qpmax=69 / qpstep=4 / cplxblur=20.0 / qblur=0.5 / ip_ratio=1.40 / aq=1:1.00
Язык: English

Аудио:
Идентификатор: 2
Формат: AC-3
Формат/Информация: Audio Coding 3
Расширение режима: CM (complete main)
Идентификатор кодека: A_AC3
Продолжительность: 1 ч. 42 м.
Вид битрейта: Постоянный
Битрейт: 128 Кбит/сек
Каналы: 6 каналов
Расположение каналов: Front: L C R, Side: L R, LFE
Частота: 48,0 КГц
Битовая глубина: 16 бит
Метод сжатия: С потерями
Размер потока: 94,0 Мбайт (12%)
Заголовок: DUB R5
Язык: Russian









pb.wtf



Скачать Поцелуй навылет через торрент http://rudb.org/img/2012_03/12/5c92cf57-6a17-4e75-81e5-c994fa27b2d3.jpg Скачать фильм Поцелуй навылет через торрент бесплантно в хорошем качестве В ролях: Роберт Дауни мл., Вэл Килмер, Мишель Монахэн, Корбин Бернсен, Дэш Майок, Ларри Миллер, Рокмонд Данбар, Шаннин Соссамон, Анджела ... 4 10 6
Info! Золотая раздача, скачанное не засчитывается.
Торрент: Зарегистрирован [2012-03-12 12:51] · скачан: 74 раз
Статус: √ проверено
Размер: 768 MB
Как cкачать? Как скачать Поцелуй навылет через торрент | UTorrent

% Раздел Тема Автор DL S | L
Фильмы (WEB-DL 720p, 1080p) [ 9.33 GB ] Поцелуй навылет / Kiss Kiss Bang Bang [2005 WEB-DL 1080p] [Open Matte] DUB+DVO+2xAVO bober100 Скачать
1 | 0
Фильмы (Blu-ray, BD-Remux, HDDVD) [ 14.38 GB ] Поцелуй навылет / Kiss Kiss Bang Bang [2005 BD Remux 1080p] DUB+MVO+2xAVO bober100 Скачать
1 | 0
Фильмы [HD 720p, 1080p] (Хороший звук DUB, MVO) [ 7.76 GB ] Поцелуй навылет / Kiss Kiss Bang Bang [2005 BDRip 1080p - [] Авторский _denis_100 Скачать
1 | 0
Фильмы [HD 720p, 1080p] (Хороший звук DUB, MVO) [ 5.76 GB ] Поцелуй навылет / Kiss Kiss Bang Bang [2005 BDRip 1080p DUB] VintMosina Скачать
1 | 0
Фильмы 2001-2005 [ 1.46 GB ] Поцелуй навылет / Kiss Kiss Bang Bang [2005 BDRip] DUB |лицензия| Mr. Freeman Скачать
1 | 0
Фильмы 2001-2005 [ 1.45 GB ] Поцелуй навылет / Kiss Kiss Bang Bang [2005 HDRip-AVC] DUB stalonе Скачать
1 | 0
Фильмы 2001-2005 [ 2.19 GB ] Поцелуй Навылет / Kiss Kiss Bang Bang [2005 BDRip] Trust Скачать
1 | 0

28-11-2019 20:33  

Отключить всю рекламу на сайте

    Дорогой пользователь! Огромная просьба, поблагодарите релизера, оцените раздачу и оставьте свои комментарий, если Вы скачали Поцелуй навылет через торрент бесплатно! Внесите свою лепту в развитие PiratBit!
    Комментировать посты могут только пользователи прошедшие не сложную регистрацию
    Показать сообщения:    

    Поцелуй навылет через торрент
    Скачать бесплатно Поцелуй навылет
    Поцелуй навылет скачать торрент
    Поцелуй навылет смотреть онлайн
    Cкачать фильм Поцелуй навылет бесплатно
    Поцелуй навылет скачать торрент в хорошем качестве
    Поцелуй навылет смотреть онлайн бесплатно в хорошем качестве


    Вы не можете начинать темы
    Вы не можете отвечать на сообщения
    Вы не можете редактировать свои сообщения
    Вы не можете удалять свои сообщения
    Вы не можете голосовать в опросах
    Вы не можете прикреплять файлы к сообщениям
    Вы можете скачивать файлы