Ссылка на приватное зеркало нашего сайта всего за 1$. Внимание количество ограничено!!!

2 сезон

iTunes

1 сезон

1

2 сезон

2 сезон

iTunes

1 сезон

RePack

30

Ultimate

ВАЖНО

ИГРА 18+

pack

RePack

MK11
pack

Забери бонус

RePack

jed

!!Акция!!

Alien_Rage

RePack

fifa19

RePack

Assassins Creed: Odyssey

RePack

NEED FOR SPEED™ PAYBACK

4 сезон

9 сезон

Бесстыжие 9 сезон

Все сериалы

все сериалы на PB.wtf

RePack

FAR CRY 5
  

Дэдвуд 1-3 сезон 36 серий из 36 / Deadwood 1-3 season 36 series from 36 (Эдвард Бьянчи, Даниэль Минахан, Дэвис Гуггенхейм) [2004-2006 г., драма, криминал, вестерн, HDRip][Novafilm] pb.wtf

Дэдвуд 1-3 сезон 36 серий из 36 через торрент pb.wtf

Размер: 23.86 GB | Добавлен: 8 лет 8 мес. назад | Торрент скачан:30 раз
Скачать  

12-03-2012 18:54 Дэдвуд 1-3 сезон 36 серий из 36 Скачать торрент  

Дэдвуд / Deadwood1-3 season

Год выпуска: 2004-2006
Страна:
Жанр: драма, криминал, вестерн
Продолжительность: 36 серий x 61 минута
Перевод: Профессиональный (одноголосый) Novafilm (Ю. Сербин)

Режиссер: Эдвард Бьянчи, Даниэль Минахан, Дэвис Гуггенхейм
Продюссер: Грегг Финберг, Лиз Сарнофф, Дэвис Гуггенхейм
Сценарий: Дэвид Милч, Реджина Коррадо, Тед Манн
В ролях: Тимоти Олифант, Иэн МакШейн, Молли Паркер, Брэд Дуриф, У. Эрл Браун, Джон Хоукс, Паула Малкомсон, Дэйтон Калли, Леон Риппи, Уильям Сэндерсон.

Описание:
1876 год. «Золотая лихорадка» охватила все пограничные территории вокруг горного массива Блэк-Хиллс. Недавно образованный из лагеря старателей посёлок Дэдвуд в Южной Дакоте — настоящая «выгребная яма», в которой собираются авантюристы и преступный сброд со всей Америки. Преступления и коррупция настолько прочно вошли в жизнь обитателей Дэдвуда, что на них практически не обращают внимания. Убийства привлекают меньше внимания, чем танцы девочек в местном салуне (англ. The Gem Saloon), владелец которого — Ал Сверенджен — считается негласным хозяином нового поселения. Сюда приезжает и бывший маршал Сет Буллок, надеясь вместе со своим другом и компаньоном по бизнесу Солом Старом открыть торговую лавку.
Внимание в сериале присутствует огромное колличество ненормативной лексики!!!

1 сезонГод выпуска: 2004
Страна:
Жанр: драма, криминал, вестерн
Продолжительность: 12 серий x 61 минута
Перевод: Профессиональный (одноголосый) Юрий Сербин

Описание: Действия происходят спустя полгода после основания лагеря, в середине 1876 года. В Дэдвуде фактически царит беззаконие. Единственно крупным по здешним меркам центром развлечений с выпивкой и борделем является «Джем Салун». Его владелец — Ал Сверенджен — держит под контролем местную торговлю и пригодные под строительство земельные участки. Конкуренцию ему неожиданно составляет Сай Толливер, открывший напротив фешенебельный салун (англ. The Bella Union): с казино и более изысканными проституткам.

Качество: HDRip
Формат: AVI
Видео кодек: DivX
Аудио кодек: AC3

Видео: 624x352 (1.77:1), 23.976 fps, DivX Codec 6.8.3 ~1145 kbps avg, 0.22 bit/pixel
Аудио : 48 kHz, AC3 Dolby Digital, 2/0 (L,R) ch, ~192 kbps
Аудио : 48 kHz, AC3 Dolby Digital, 2/0 (L,R) ch, ~192 kbps
Общее
Полное имя : \Deadwood\1 season\deadwood.s01e01.bdrip.rus.eng.novafilm.tv.avi
Формат : AVI
Формат/Информация : Audio Video Interleave
Размер файла : 682 Мбайт
Продолжительность : 1 ч. 1 м.
Общий поток : 1545 Кбит/сек
Программа кодирования : VirtualDubMod 1.5.10.2 (build 2542/release)
Библиотека кодирования : VirtualDubMod build 2542/release

Видео
Идентификатор : 0
Формат : MPEG-4 Visual
Параметр BVOP формата : 1
Параметр QPel формата : Нет
Параметр GMC формата : Без точки перехода
Параметр матрицы формата : Default (H.263)
Режим смешивания : Сжатый битовый поток
Идентификатор кодека : DX50
Идентификатор кодека/Подсказка : DivX 5
Продолжительность : 1 ч. 1 м.
Битрейт : 1146 Кбит/сек
Ширина : 624 пикселя
Высота : 352 пикселя
Соотношение сторон : 16:9
Частота кадров : 23,976 кадра/сек
Цветовое пространство : YUV
Субдискретизация насыщенности : 4:2:0
Битовая глубина : 8 бит
Тип развёртки : Прогрессивная
Метод сжатия : С потерями
Бит/(Пиксели*Кадры) : 0.218
Размер потока : 506 Мбайт (74%)
Библиотека кодирования : DivX 6.8.3-6.8.4 (UTC 2008-06-07)

Аудио #1
Идентификатор : 1
Формат : AC-3
Формат/Информация : Audio Coding 3
Расширение режима : CM (complete main)
Идентификатор кодека : 2000
Продолжительность : 1 ч. 1 м.
Вид битрейта : Постоянный
Битрейт : 192 Кбит/сек
Каналы : 2 канала
Расположение каналов : Front: L R
Частота : 48,0 КГц
Битовая глубина : 16 бит
Метод сжатия : С потерями
Размер потока : 84,7 Мбайт (12%)
Выравнивание : Разделение по промежуткам
Продолжительность промежутка : 42 мс. (1,00 видеокадр)
Время предзагрузки промежутка : 500 мс.

Аудио #2
Идентификатор : 2
Формат : AC-3
Формат/Информация : Audio Coding 3
Расширение режима : CM (complete main)
Идентификатор кодека : 2000
Продолжительность : 1 ч. 1 м.
Вид битрейта : Постоянный
Битрейт : 192 Кбит/сек
Каналы : 2 канала
Расположение каналов : Front: L R
Частота : 48,0 КГц
Битовая глубина : 16 бит
Метод сжатия : С потерями
Размер потока : 84,7 Мбайт (12%)
Выравнивание : Разделение по промежуткам
Продолжительность промежутка : 42 мс. (1,00 видеокадр)
Время предзагрузки промежутка : 500 мс.
2 сезонГод выпуска: 2005
Страна:
Жанр: драма, криминал, вестерн
Продолжительность: 12 серий x 61 минута
Перевод: Профессиональный (одноголосый) Юрий Сербин

Описание: В начале 1877 года Дэдвуд выглядит уже намного благопристойнее, чем год назад. Золотые прииски процветают. Независимое поселение постепенно разрастается и стремительно обретает черты небольшого городка с разными районами, в том числе и своим «чайнатауном»; в нём открывается банк, есть свой шериф, обязанности которого взял на себя Сет Буллок, проходит линия телеграфа. Не дремлет и преступность, которая становится более изощрённой и завязанной на финансово-экономических интересах.

Качество: HDRip
Формат: AVI
Видео кодек: DivX
Аудио кодек: AC3

Видео: 624x352 (1.77:1), 23.976 fps, DivX Codec 6.8.3 ~1531 kbps avg, 0.29 bit/pixel
Аудио : 48 kHz, AC3 Dolby Digital, 2/0 (L,R) ch, ~192 kbps
Аудио : 48 kHz, AC3 Dolby Digital, 2/0 (L,R) ch, ~192 kbps
Общее
Полное имя : \Deadwood\2 season\deadwood.s02e01.bdrip.rus.eng.novafilm.tv.avi
Формат : AVI
Формат/Информация : Audio Video Interleave
Размер файла : 678 Мбайт
Продолжительность : 49 м.
Общий поток : 1931 Кбит/сек
Программа кодирования : VirtualDubMod 1.5.10.2 (build 2542/release)
Библиотека кодирования : VirtualDubMod build 2542/release

Видео
Идентификатор : 0
Формат : MPEG-4 Visual
Параметр BVOP формата : 1
Параметр QPel формата : Нет
Параметр GMC формата : Без точки перехода
Параметр матрицы формата : Default (H.263)
Режим смешивания : Сжатый битовый поток
Идентификатор кодека : DX50
Идентификатор кодека/Подсказка : DivX 5
Продолжительность : 49 м.
Битрейт : 1532 Кбит/сек
Ширина : 624 пикселя
Высота : 352 пикселя
Соотношение сторон : 16:9
Частота кадров : 23,976 кадра/сек
Цветовое пространство : YUV
Субдискретизация насыщенности : 4:2:0
Битовая глубина : 8 бит
Тип развёртки : Прогрессивная
Метод сжатия : С потерями
Бит/(Пиксели*Кадры) : 0.291
Размер потока : 538 Мбайт (79%)
Библиотека кодирования : DivX 6.8.3-6.8.4 (UTC 2008-06-07)

Аудио #1
Идентификатор : 1
Формат : AC-3
Формат/Информация : Audio Coding 3
Расширение режима : CM (complete main)
Идентификатор кодека : 2000
Продолжительность : 49 м.
Вид битрейта : Постоянный
Битрейт : 192 Кбит/сек
Каналы : 2 канала
Расположение каналов : Front: L R
Частота : 48,0 КГц
Битовая глубина : 16 бит
Метод сжатия : С потерями
Размер потока : 67,5 Мбайт (10%)
Выравнивание : Разделение по промежуткам
Продолжительность промежутка : 42 мс. (1,00 видеокадр)
Время предзагрузки промежутка : 500 мс.

Аудио #2
Идентификатор : 2
Формат : AC-3
Формат/Информация : Audio Coding 3
Расширение режима : CM (complete main)
Идентификатор кодека : 2000
Продолжительность : 49 м.
Вид битрейта : Постоянный
Битрейт : 192 Кбит/сек
Каналы : 2 канала
Расположение каналов : Front: L R
Частота : 48,0 КГц
Битовая глубина : 16 бит
Метод сжатия : С потерями
Размер потока : 67,5 Мбайт (10%)
Выравнивание : Разделение по промежуткам
Продолжительность промежутка : 42 мс. (1,00 видеокадр)
Время предзагрузки промежутка : 500 мс.
3 сезонГод выпуска: 2006
Страна:
Жанр: драма, криминал, вестерн
Продолжительность: 12 серий x 61 минута
Перевод: Профессиональный (одноголосый) Юрий Сербин

Описание:События начинаются через шесть недель после финала второго сезона. В разгаре политическая борьба за выборы администрации в Дэдвуде, чтобы тот мог официально получить статус города и войти под юрисдикцию США в границах объединённых территорий Дакоты (со 2 ноября 1889 года — штаты Южная и Северная Дакота). В Дэдвуде начинает давать представления профессиональная театральная труппа. В жёсткую конфронтацию с местными жителями входит богатый калифорнийский бизнесмен и крупный золотоискатель Джордж Хёрст.

Качество: HDRip
Формат: AVI
Видео кодек: DivX
Аудио кодек: AC3

Видео: 624x352 (1.77:1), 23.976 fps, DivX Codec 6.8.3 ~1395 kbps avg, 0.27 bit/pixel
Аудио : 48 kHz, AC3 Dolby Digital, 2/0 (L,R) ch, ~192 kbps
Аудио : 48 kHz, AC3 Dolby Digital, 2/0 (L,R) ch, ~192 kbps
Общее
Полное имя : \Deadwood\3 season\deadwood.s03e01.bdrip.rus.eng.novafilm.tv.avi
Формат : AVI
Формат/Информация : Audio Video Interleave
Размер файла : 679 Мбайт
Продолжительность : 52 м.
Общий поток : 1794 Кбит/сек
Программа кодирования : VirtualDubMod 1.5.10.2 (build 2542/release)
Библиотека кодирования : VirtualDubMod build 2542/release

Видео
Идентификатор : 0
Формат : MPEG-4 Visual
Параметр BVOP формата : 1
Параметр QPel формата : Нет
Параметр GMC формата : Без точки перехода
Параметр матрицы формата : Default (H.263)
Режим смешивания : Сжатый битовый поток
Идентификатор кодека : DX50
Идентификатор кодека/Подсказка : DivX 5
Продолжительность : 52 м.
Битрейт : 1396 Кбит/сек
Ширина : 624 пикселя
Высота : 352 пикселя
Соотношение сторон : 16:9
Частота кадров : 23,976 кадра/сек
Цветовое пространство : YUV
Субдискретизация насыщенности : 4:2:0
Битовая глубина : 8 бит
Тип развёртки : Прогрессивная
Метод сжатия : С потерями
Бит/(Пиксели*Кадры) : 0.265
Размер потока : 528 Мбайт (78%)
Библиотека кодирования : DivX 6.8.3-6.8.4 (UTC 2008-06-07)

Аудио #1
Идентификатор : 1
Формат : AC-3
Формат/Информация : Audio Coding 3
Расширение режима : CM (complete main)
Идентификатор кодека : 2000
Продолжительность : 52 м.
Вид битрейта : Постоянный
Битрейт : 192 Кбит/сек
Каналы : 2 канала
Расположение каналов : Front: L R
Частота : 48,0 КГц
Битовая глубина : 16 бит
Метод сжатия : С потерями
Размер потока : 72,6 Мбайт (11%)
Выравнивание : Разделение по промежуткам
Продолжительность промежутка : 42 мс. (1,00 видеокадр)
Время предзагрузки промежутка : 500 мс.

Аудио #2
Идентификатор : 2
Формат : AC-3
Формат/Информация : Audio Coding 3
Расширение режима : CM (complete main)
Идентификатор кодека : 2000
Продолжительность : 52 м.
Вид битрейта : Постоянный
Битрейт : 192 Кбит/сек
Каналы : 2 канала
Расположение каналов : Front: L R
Частота : 48,0 КГц
Битовая глубина : 16 бит
Метод сжатия : С потерями
Размер потока : 72,6 Мбайт (11%)
Выравнивание : Разделение по промежуткам
Продолжительность промежутка : 42 мс. (1,00 видеокадр)
Время предзагрузки промежутка : 500 мс.

Сюжет сериала «Дэдвуд» основан на биографических фактах и художественных интерпретациях из жизни исторических личностей, обосновавшихся в этом городе, — американских первопоселенцев и предпринимателей.
- Эллис Альберт «Ал» Сверенджен (1845—1904) управлял «Джем салуном», который вскоре был перестроен в театр-варьете, более двух десятков лет, пока здание не сгорело полностью в 1899 году.
- Сет Буллок (1849—1919) на протяжении многих лет служил шерифом (а затем и маршалом) в Южной Дакоте, стал впоследствии одним из близких друзей Теодора Рузвельта.
- Его компаньон по бизнесу — Сол Стар (1840—1917) — успешно вёл дела в Дэдвуде, с 1884 года в течение четырнадцати лет избирался мэром города.
- Легендарный стрелок Джеймс Батлер Хикок был застрелен в одном из салунов Дэдвуда пьяным Джеком Макколом 2 августа 1876 года. Похоронен Дикий Билл Хикок на местном кладбище «Инглсайд».
- В 1903 году рядом с Хикоком по исполнению последней воли была захоронена и его подруга, профессиональный скаут Марта Джейн Каннари Бёрк (род. 1852).
- Биография их общего приятеля Чарльза Аттера (около 1838—н.д.) полна «белых пятен» и не имеет каких-либо точных подтверждений после 1880 года, когда он открыл салун в Сокорро (Нью-Мексико).
- Прототипом Сая Толливера, владельца салуна и казино The Bella Union, был предприниматель Том Миллер, обанкротившийся в ноябре 1878 года. Салун был перекуплен и превращен в бакалейный магазин.
- Персонаж сериала И. Б. Фарнум также имеет своего прототипа — Итана Беннета Фарнума (1826—н.д.), первого мэра Дэдвуда.
- Журналист Э. У. Меррик основал в Дэдвуде первую газету (англ. Black Hills Pioneer), издание которой ведется до сих пор, сейчас редакция находится в соседнем городе Спирфиш.
- Преподобный Генри Уэстон Смит (род. 1827), в отличие от одноимённого героя сериала, был в здравии, когда 20 августа 1876 года был убит неизвестным стрелком по пути в соседний лагерь (англ. Crook City).
- Горнодобывающий магнат Джордж Хёрст (1820—1891) имел в описываемый период предпринимательские интересы на приисках в Южной Дакоте, но о каких-либо документально подтверждённых фактах его пребывания в Дэдвуде ничего не известно.
- Уайетт Эрп (1848—1929) в 1876 году стал помощником маршала в Додж-Сити, вместе с братом Морганом посетили Дэдвуд весной 1877-го как частные лица (участвовали в сплавке леса и охране грузов).
- Актёр и импресарио Джек Лангриш (н.д.—1895) приехал в Дэдвуд вместе с труппой 15 июля 1876 года, первое театральное представление было дано через две недели.
pb.wtf



Скачать Дэдвуд 1-3 сезон 36 серий из 36 через торрент http://pic.kartinco.top/images/2011/wsjxyvckxj.jpg Скачать фильм Дэдвуд 1-3 сезон 36 серий из 36 через торрент бесплантно в хорошем качестве Описание:1876 год. «Золотая лихорадка» охватила все пограничные территории вокруг горного массива Блэк-Хиллс. Недавно образованный из ... 9.2 10 5
Info! Золотая раздача, скачанное не засчитывается.
Торрент: Зарегистрирован [2012-03-12 18:54] · скачан: 30 раз
Статус: √ проверено
Размер: 23.86 GB
Как cкачать? Как скачать Дэдвуд 1-3 сезон 36 серий из 36 через торрент | qTorrent

28-11-2019 20:33  

Отключить всю рекламу на сайте

12-03-2012 18:59 Дэдвуд 1-3 сезон 36 серий из 36 Скачать торрент  

офигенный сериал))) :good2:pb.wtf



12-03-2012 20:35 Дэдвуд 1-3 сезон 36 серий из 36 Скачать торрент  

где народ как качатьpb.wtf



12-03-2012 20:48 Дэдвуд 1-3 сезон 36 серий из 36 Скачать торрент  

Очень хороший сериал . ''Чисто мужской ''pb.wtf



15-01-2017 23:50 Дэдвуд 1-3 сезон 36 серий из 36 Скачать торрент  

Скорости пожалста!!!!!!!!!!! pb.wtf



    Дорогой пользователь! Огромная просьба, поблагодарите релизера, оцените раздачу и оставьте свои комментарий, если Вы скачали Дэдвуд 1-3 сезон 36 серий из 36 через торрент бесплатно! Внесите свою лепту в развитие PiratBit!
    Комментировать посты могут только пользователи прошедшие не сложную регистрацию
    Показать сообщения:    

    Дэдвуд 1-3 сезон 36 серий из 36 через торрент
    Скачать бесплатно Дэдвуд 1-3 сезон 36 серий из 36
    Дэдвуд 1-3 сезон 36 серий из 36 скачать торрент
    Дэдвуд 1-3 сезон 36 серий из 36 смотреть онлайн
    Cкачать фильм Дэдвуд 1-3 сезон 36 серий из 36 бесплатно
    Дэдвуд 1-3 сезон 36 серий из 36 скачать торрент в хорошем качестве
    Дэдвуд 1-3 сезон 36 серий из 36 смотреть онлайн бесплатно в хорошем качестве


    Вы не можете начинать темы
    Вы не можете отвечать на сообщения
    Вы не можете редактировать свои сообщения
    Вы не можете удалять свои сообщения
    Вы не можете голосовать в опросах
    Вы не можете прикреплять файлы к сообщениям
    Вы можете скачивать файлы