Ссылка на приватное зеркало нашего сайта всего за 1$. Внимание количество ограничено!!!

2 сезон

iTunes

1 сезон

1

2 сезон

2 сезон

iTunes

1 сезон

RePack

30

Новинка

ВАЖНО

ИГРА 18+

pack

RePack

MK11
pack

Забери бонус

RePack

jed

!!Акция!!

Alien_Rage

RePack

fifa19

RePack

Assassins Creed: Odyssey

RePack

NEED FOR SPEED™ PAYBACK

4 сезон

9 сезон

Бесстыжие 9 сезон

Все сериалы

все сериалы на PB.wtf

RePack

FAR CRY 5
  

В стиле Джейн / Jane By Design / Сезон: 1 / Серии: 1-18(18)(Гэвин Полон) [2012, комедия, драма, WEB-DLRip](NewStudio) pb.wtf

В стиле Джейн через торрент pb.wtf

Размер: 9.67 GB | Добавлен: 7 лет 6 мес. назад | Торрент скачан:2 раза
Скачать  

13-03-2012 19:31 В стиле Джейн Скачать торрент  

В стиле Джейн / Jane By Design
Год выпуска: 2012
Страна: США
Жанр: комедия, драма
Продолжительность: ~ 00:45:00
Перевод: Профессиональный (двухголосый) (NewStudio)
Субтитры: Отсутствуют
Режиссер: Гэвин Полон
В ролях: Мэттью Эткинсон, Эрика Дашер, Индия де Бефорт, Роб Майес, Брук Лайонс
Описание: Сериал расскажет о шестнадцатилетней Джейн, которая получила работу в модной розничной компании, где её ошибочно приняли за взрослую. Теперь Джейн совмещает жизнь обычного подростка и помощника влиятельного начальника в безжалостном мире моды и пытается сохранить в тайне свою настоящую личность…
Похожие раздачи: Jane By Design
Качество: WEB-DLRip
Формат: AVI
Видео кодек: XviD
Аудио кодек: MP3
Видео: 720x400 (16:9), 23.976 fps, XviD build 64 ~1577 kbps avg, 0.23 bit/pixel
Аудио Rus: 48 kHz, MPEG Layer 3, 2 ch, ~128.00 kbps avg
Аудио Eng: 48 kHz, MPEG Layer 3, 2 ch, ~128.00 kbps avg
Релиз от: NewStudio
Озвучка: Юлия Котурбаш, Артем Мирон
Перевод: Notabenoid
Редактор: Артем Мирон
Подготовка видео: koss
Работа со звуком: cherry
Постер: vortex




Общее
Полное имя : D:seriesJane By Design Season 1Jane.By.Design.s01e01.WEBDLRip.NewStudio.TV.avi
Формат : AVI
Формат/Информация : Audio Video Interleave
Размер файла : 550 Мбайт
Продолжительность : 41 м.
Режим общего битрейта : Переменный
Общий поток : 1854 Кбит/сек
Программа кодирования : VirtualDubMod 1.5.10.2 (build 2540/release)
Библиотека кодирования : VirtualDubMod build 2540/release

Видео
Идентификатор : 0
Формат : MPEG-4 Visual
Профиль формата : Advanced Simple@L5
Параметр BVOP формата : 2
Параметр QPel формата : Нет
Параметр GMC формата : Без точки перехода
Параметр матрицы формата : Default (MPEG)
Идентификатор кодека : XVID
Идентификатор кодека/Подсказка : XviD
Продолжительность : 41 м.
Битрейт : 1579 Кбит/сек
Ширина : 720 пикселей
Высота : 400 пикселей
Соотношение сторон : 16:9
Частота кадров : 23,976 кадра/сек
Цветовое пространство : YUV
Субдискретизация насыщенности : 4:2:0
Битовая глубина : 8 бит
Тип развёртки : Прогрессивная
Метод сжатия : С потерями
Бит/(Пиксели*Кадры) : 0.229
Размер потока : 468 Мбайт (85%)
Библиотека кодирования : XviD 64

Аудио #1
Идентификатор : 1
Формат : MPEG Audio
Версия формата : Version 1
Профиль формата : Layer 3
Режим : Joint stereo
Расширение режима : MS Stereo
Идентификатор кодека : 55
Идентификатор кодека/Подсказка : MP3
Продолжительность : 41 м.
Вид битрейта : Постоянный
Битрейт : 128 Кбит/сек
Каналы : 2 канала
Частота : 48,0 КГц
Метод сжатия : С потерями
Размер потока : 38,0 Мбайт (7%)
Выравнивание : Соединение по промежуткам
Продолжительность промежутка : 42 мс. (1,00 видеокадр)
Время предзагрузки промежутка : 504 мс.

Аудио #2
Идентификатор : 2
Формат : MPEG Audio
Версия формата : Version 1
Профиль формата : Layer 3
Режим : Joint stereo
Расширение режима : MS Stereo
Идентификатор кодека : 55
Идентификатор кодека/Подсказка : MP3
Продолжительность : 41 м.
Вид битрейта : Переменный
Битрейт : 128 Кбит/сек
Каналы : 2 канала
Частота : 48,0 КГц
Метод сжатия : С потерями
Размер потока : 38,5 Мбайт (7%)
Выравнивание : Соединение по промежуткам
Продолжительность промежутка : 24 мс. (0,58 видеокадр)
Время предзагрузки промежутка : 499 мс.
Библиотека кодирования : LAME3.90.
Настройки программы : -m j -V 4 -q 2 -lowpass 17.6 --abr 128

Внимание! Раздача ведётся путём добавления новых серий; при каждом добавлении создётся новый торрент. Чтобы начать докачку новой серии, пользователям необходимо сделать следующее:
(1) остановить скачивание,
(2) удалить старый торрент у себя из клиента (старые серии удалять не надо),
(3) скачать новый торрент и запустить его у себя в клиенте вместо старого, при этом указать клиенту путь в старую папку куда и должно происходить скачивание новых серий.

Ваш клиент при этом должен произвести хеширование (проверку) старой папки (если не производит сам - помогите ему сделать это), и будет докачивать только те серии которых у вас ещё нет. Старые серии при этом не удаляются, а продолжают раздаваться!

Eсли вы уже удалили старые серии, то предотвратить повторную закачку старых серий можно, отжав галочку в соответсвующих местах при запуске нового торрента. По возможности, желательно не удалять старые серии как можно дольше чтобы релизёр не столько продолжал раздавать старые серии, а смог сконцентрироваться на новых.
Добавлены 11-18 серии! Сезон окончен!
pb.wtf



Скачать В стиле Джейн через торрент http://pic.kartinco.top/images/2011/9camhkrgbq.png Скачать фильм В стиле Джейн через торрент бесплантно в хорошем качестве Описание: Сериал расскажет о шестнадцатилетней Джейн, которая получила работу в модной розничной компании, где её ошибочно приняли за ... 10 10 1
Info! Золотая раздача, скачанное не засчитывается.
Торрент: Зарегистрирован [2013-05-17 13:35] · скачан: 2 раз
Статус: √ проверено
Размер: 9.67 GB
Как cкачать? Как скачать В стиле Джейн через торрент | qTorrent

% Раздел Тема Автор DL S | L
Зарубежные сериалы [ 27.25 GB ] В стиле Джейн / Jane by Design / Сезон: 1 / Серии: 1-18 из 18 [2011 WEB-DL 720p] [MVO] killermax2013 Скачать
1 | 0


Последний раз редактировалось: Messa-fan (2013-05-17 13:35), всего редактировалось 1 раз

28-11-2019 20:33  

Отключить всю рекламу на сайте

20-03-2012 14:35 В стиле Джейн Скачать торрент  

Добавлена 10 серия!
Продолжение сезона этим летом.
pb.wtf



06-07-2012 22:32 В стиле Джейн Скачать торрент  

Messa-fan
Спасибо за релиз!pb.wtf



17-05-2013 13:40 В стиле Джейн Скачать торрент  

Добавлены 11-18 серии! Сезон окончен!
pb.wtf



    Дорогой пользователь! Огромная просьба, поблагодарите релизера, оцените раздачу и оставьте свои комментарий, если Вы скачали В стиле Джейн через торрент бесплатно! Внесите свою лепту в развитие PiratBit!
    Комментировать посты могут только пользователи прошедшие не сложную регистрацию
    Показать сообщения:    

    В стиле Джейн через торрент
    Скачать бесплатно В стиле Джейн
    В стиле Джейн скачать торрент
    В стиле Джейн смотреть онлайн
    Cкачать фильм В стиле Джейн бесплатно
    В стиле Джейн скачать торрент в хорошем качестве
    В стиле Джейн смотреть онлайн бесплатно в хорошем качестве


    Вы не можете начинать темы
    Вы не можете отвечать на сообщения
    Вы не можете редактировать свои сообщения
    Вы не можете удалять свои сообщения
    Вы не можете голосовать в опросах
    Вы не можете прикреплять файлы к сообщениям
    Вы можете скачивать файлы