Мега распродажа FORZA HORIZON 4 ULTIMATE+ВСЕ DLC+ОНЛАЙН всего за 499р. 349 руб. (супер цена). Внимание количество ограничено!!!

Лицензия

30

iTunes

мы

iTunes

1

1 сезон

Чернобыль

1 сезон

Ральф против интернета

MVO

Покемон. Детектив Пикачу

8 сезон

Игра престолов

iTunes

1+1

ИГРА 18+

pack

ВАЖНО

!!Акция!!

Alien_RageХит недели

RePack

Resident Evil 21
pack

RePack

Metro:Exodus

!!Акция!!

Alien_Rage

RePack

fifa19

RePack

Assassins Creed: Odyssey

RePack

NEED FOR SPEED™ PAYBACK

3 сезон

9 сезон

Бесстыжие 9 сезон

Все сериалы

все сериалы на PB.wtf

RePack

FAR CRY 5
Ребята, катастрофически не хватает 2730р. для оплаты серверов за МАЙ (всвязи с блокировками трафик упал в 3 раза), 1-2р., выручайте.
  

Агент Мандрил / Mandrill (Эрнесто Диаз Эспиноза) [2009 г., боевик, BDRip] pb.wtf

Агент Мандрил через торрент pb.wtf

Размер: 993 MB | Добавлен: 7 лет 3 мес. назад | Торрент скачан:36 раз
Скачать  

15-03-2012 18:51 Агент Мандрил Скачать торрент  

Агент Мандрил / Mandrill

Год выпуска: 2009
Страна: Чили / Mandrill Films
Жанр: боевик
Продолжительность: 01:29:22
Перевод: Любительский (одноголосый) Хихидок по субтитрам gordana 75

Режиссер: Эрнесто Диаз Эспиноза
Продюссер: Derek Rundell, Марко Зарор
Сценарий: Эрнесто Диаз Эспиноза

Премьера в мире: 15 сентября 2009. Чили. Ограниченный прокат



В ролях: Марко Зарор, Селин Реймонд, Алехандро Кастилло, Луис Аларкон, Мария Хосе Прието, Otilio Castro, Мигель Энджел Де Люка, Catalina Olcay, Августо Шустер

Описание: Родители Антонио были убиты, когда он был ребенком. Когда он вырос,то стал наемным убийцей под кодовым именем Мандрил. Идея фикс Антонио,это найти убийц своих родителей.
Слабость его, это женщины. И когда ему дают задание убить владельца казино,он узнает, что это ключ к разгадке,кто убил его родителей. Но у владельца казино, ну очень красивая дочка....

Похожие раздачи: Агент Мандрил

Качество: BDRip
Формат: AVI
Видео кодек: XviD
Аудио кодек: MP3
Видео: 720x304 (2.35:1), 23.976 fps, 1352 kbps, 0.258 bit/pixel
Аудио: 44.100 kHz, 2 ch, 192.00 kbps

Общее
Полное имя : D:\Mandrill.2009.Xixidok.avi
Формат : AVI
Формат/Информация : Audio Video Interleave
Размер файла : 993 Мбайт
Продолжительность : 1 ч. 29 м.
Общий поток : 1553 Кбит/сек
Программа кодирования : VirtualDubMod 1.5.10.3 (build 2550/release)
Библиотека кодирования : VirtualDubMod build 2550/release

Видео
Идентификатор : 0
Формат : MPEG-4 Visual
Профиль формата : Advanced Simple@L5
Параметр BVOP формата : 2
Параметр QPel формата : Нет
Параметр GMC формата : Без точки перехода
Параметр матрицы формата : Default (H.263)
Идентификатор кодека : XVID
Идентификатор кодека/Подсказка : XviD
Продолжительность : 1 ч. 29 м.
Битрейт : 1352 Кбит/сек
Ширина : 720 пикселей
Высота : 304 пикселя
Соотношение сторон : 2,35:1
Частота кадров : 23,976 кадра/сек
Цветовое пространство : YUV
Субдискретизация насыщенности : 4:2:0
Битовая глубина : 8 бит
Тип развёртки : Прогрессивная
Метод сжатия : С потерями
Бит/(Пиксели*Кадры) : 0.258
Размер потока : 864 Мбайт (87%)
Библиотека кодирования : XviD 64

Аудио
Идентификатор : 1
Формат : MPEG Audio
Версия формата : Version 1
Профиль формата : Layer 3
Идентификатор кодека : 55
Идентификатор кодека/Подсказка : MP3
Продолжительность : 1 ч. 29 м.
Вид битрейта : Постоянный
Битрейт : 192 Кбит/сек
Каналы : 2 канала
Частота : 44,1 КГц
Метод сжатия : С потерями
Задержка видео : 6 мс.
Размер потока : 123 Мбайт (12%)
Выравнивание : Разделение по промежуткам
Продолжительность промежутка : 42 мс. (1,00 видеокадр)
Время предзагрузки промежутка : 500 мс.





pb.wtf



Скачать Агент Мандрил через торрент http://www.mafia.to/thumb-146824.jpg Скачать фильм Агент Мандрил через торрент бесплантно в хорошем качестве Описание: Родители Антонио были убиты, когда он был ребенком. Когда он вырос,то стал наемным убийцей под кодовым именем Мандрил. Идея фикс ... 10 10 2
Info! Золотая раздача, скачанное не засчитывается.
Торрент: Зарегистрирован [2012-03-15 18:51] · скачан: 36 раз
Статус: T временная
Размер: 993 MB
Как cкачать? Как скачать Агент Мандрил через торрент | qTorrent


>> Регистрируемся здесь <<






Отзывы и комментарии о схеме читаем и пишем здесь: ---> Отзывы и комментарии о схеме

Новые благодарочки в телеграм довольных пользователей:
скриншот   скриншот   скриншот   скриншот   скриншот

15-03-2012 19:43 Агент Мандрил Скачать торрент  

актер каторый был противником бойко в фильме неоспоримыйpb.wtf



    Дорогой пользователь! Огромная просьба, поблагодарите релизера, оцените раздачу и оставьте свои комментарий, если Вы скачали Агент Мандрил через торрент бесплатно! Внесите свою лепту в развитие PiratBit!
    Комментировать посты могут только пользователи прошедшие не сложную регистрацию
    Показать сообщения:    

    Агент Мандрил через торрент
    Скачать бесплатно Агент Мандрил
    Агент Мандрил скачать торрент
    Агент Мандрил смотреть онлайн
    Cкачать фильм Агент Мандрил бесплатно
    Агент Мандрил скачать торрент в хорошем качестве
    Агент Мандрил смотреть онлайн бесплатно в хорошем качестве


    Вы не можете начинать темы
    Вы не можете отвечать на сообщения
    Вы не можете редактировать свои сообщения
    Вы не можете удалять свои сообщения
    Вы не можете голосовать в опросах
    Вы не можете прикреплять файлы к сообщениям
    Вы можете скачивать файлы