Ссылка на приватное зеркало нашего сайта всего за 1$. Внимание количество ограничено!!!

2 сезон

iTunes

1 сезон

1

iTunes

iTunes

iTunes

1 сезон

RePack

30

ИГРА 18+

pack

ВАЖНО

!!Акция!!

Alien_RageХит недели

RePack

MK11
pack

Забери бонус

RePack

jed

!!Акция!!

Alien_Rage

RePack

fifa19

RePack

Assassins Creed: Odyssey

RePack

NEED FOR SPEED™ PAYBACK

4 сезон

9 сезон

Бесстыжие 9 сезон

Все сериалы

все сериалы на PB.wtf

RePack

FAR CRY 5
  

Аноним / Anonymous (Роланд Эммерих) [2011 г., триллер, драма, BDRip (1080p), лицензия]+Ukrainian pb.wtf

Аноним через торрент pb.wtf

Размер: 9.24 GB | Добавлен: 8 лет 7 мес. назад | Торрент скачан:57 раз
Скачать  

16-03-2012 14:42 Аноним Скачать торрент  

Аноним / Anonymous
[font=serif]
Год выпуска: 2011
Страна: Германия, Великобритания
Жанр: триллер, драма
Продолжительность: 02:09:57
Перевод: Дублированное [лицензия]
Тип релиза: Лицензия

Режиссер: Роланд Эммерих



В ролях: Рис Иванс, Ванесса Редгрейв, Себастьян Фернандес-Арместо, Рейф Сполл, Дэвид Тьюлис, Эдвард Хогг, Ксавьер Сэмюэл, Сэм Рейд, Джейми Кэмпбелл Бауэр, Джоэли Ричардсон

Описание: Фильм даст совершенно неожиданный ответ на извечный вопрос: а кем же «был или не был» Шекспир, и кто на самом деле скрывается за этим всемирно известным именем великого человека?

Качество: BDRip (1080p)
Формат: MKV
Видео кодек: H.26x
Аудио кодек: AC3
Видео: 1920x816 at 23.976 fps, x264@L4.1, ~8070 kbps avg
Аудио#1: Russian: 48 kHz, AC3, 3/2 (L,C,R,l,r) + LFE ch, ~640.00 kbps avg |Дубляж, Blu-ray CEE|
Аудио#2: Ukrainian: 48 kHz, AC3, 3/2 (L,C,R,l,r) + LFE ch, ~640.00 kbps avg |Дубляж, Blu-ray CEE|
Аудио#3: English: 48 kHz, AC3, 3/2 (L,C,R,l,r) + LFE ch, ~640.00 kbps avg
Аудио#4: English: 48 kHz, АC3, 2/0 (L,R) ch, ~192.00 kbps avg |Commentary with Director Roland Emmerich and Writer John Orloff|
Субтитры: Russian (Blu-ray CEE), Ukrainian (Forced, Blu-ray CEE), English


General
Уникальный идентификатор : 197447333042467121562432364412778586666 (0x948AF91E09A59D77950201063B58222A)
Полное имя : D:\Merged Volume 'Локальный диск ' (E)\Anonymous.2011.1080p.BluRay.Rus.Ukr.Eng.HDCLUB.mkv
Формат : Matroska
Версия формата : Version 2
Размер файла : 9.24 GiB
Продолжительность : 2h 9mn
Общий поток : 10.2 Mbps
Название фильма : Anonymous (2011) - Release for HDCLUB by doclogan
Дата кодирования : UTC 2012-03-15 16:11:59
Программа кодирования : mkvmerge v5.0.1 ('Es ist Sommer') built on Oct 9 2011 11:55:43
Библиотека кодирования : libebml v1.2.2 + libmatroska v1.3.0

Video
Идентификатор : 1
Формат : AVC
Формат/Информация : Advanced Video Codec
Профиль формата : High@L4.1
Параметр CABAC формата : Yes
Параметр ReFrames формата : 5 frames
Идентификатор кодека : V_MPEG4/ISO/AVC
Продолжительность : 2h 9mn
Битрейт : 8 070 Kbps
Ширина : 1 920 pixels
Высота : 816 pixels
Соотношение сторон : 2.35:1
Частота кадров : 23.976 fps
Цветовое пространство : YUV
Субдискретизация насыщенности : 4:2:0
Битовая глубина : 8 bits
Тип развёртки : Progressive
Бит/(Пиксели*Кадры) : 0.215
Размер потока : 7.14 GiB (77%)
Заголовок : Release for HDCLUB by doclogan
Библиотека кодирования : x264 core 120 r2119 0637cd6
Настройки программы : cabac=1 / ref=5 / deblock=1:-3:-3 / analyse=0x3:0x113 / me=umh / subme=11 / psy=1 / psy_rd=1.05:0.10 / mixed_ref=1 / me_range=48 / chroma_me=1 / trellis=2 / 8x8dct=1 / cqm=0 / deadzone=21,11 / fast_pskip=0 / chroma_qp_offset=-2 / threads=12 / sliced_threads=0 / nr=0 / decimate=1 / interlaced=0 / bluray_compat=0 / constrained_intra=0 / bframes=6 / b_pyramid=2 / b_adapt=2 / b_bias=0 / direct=3 / weightb=1 / open_gop=0 / weightp=2 / keyint=250 / keyint_min=23 / scenecut=40 / intra_refresh=0 / rc_lookahead=60 / rc=2pass / mbtree=1 / bitrate=8070 / ratetol=1.0 / qcomp=0.70 / qpmin=0 / qpmax=69 / qpstep=4 / cplxblur=20.0 / qblur=0.5 / vbv_maxrate=45000 / vbv_bufsize=40000 / nal_hrd=none / ip_ratio=1.40 / aq=2:0.90
Язык : English
Default : Yes
Forced : No

Audio #1
Идентификатор : 2
Формат : AC-3
Формат/Информация : Audio Coding 3
Расширение режима : CM (complete main)
Идентификатор кодека : A_AC3
Продолжительность : 2h 9mn
Вид битрейта : Constant
Битрейт : 640 Kbps
Каналы : 6 channels
Расположение каналов : Front: L C R, Side: L R, LFE
Частота : 48.0 KHz
Битовая глубина : 16 bits
Метод сжатия : Lossy
Размер потока : 595 MiB (6%)
Заголовок : DD 5.1 @ 640 kbps – Дубляж (Blu-ray)
Язык : Russian
Default : Yes
Forced : No

Audio #2
Идентификатор : 3
Формат : AC-3
Формат/Информация : Audio Coding 3
Расширение режима : CM (complete main)
Идентификатор кодека : A_AC3
Продолжительность : 2h 9mn
Вид битрейта : Constant
Битрейт : 640 Kbps
Каналы : 6 channels
Расположение каналов : Front: L C R, Side: L R, LFE
Частота : 48.0 KHz
Битовая глубина : 16 bits
Метод сжатия : Lossy
Размер потока : 595 MiB (6%)
Заголовок : DD 5.1 @ 640 kbps – Дубляж (Blu-ray)
Язык : Ukrainian
Default : No
Forced : No

Audio #3
Идентификатор : 4
Формат : AC-3
Формат/Информация : Audio Coding 3
Расширение режима : CM (complete main)
Идентификатор кодека : A_AC3
Продолжительность : 2h 9mn
Вид битрейта : Constant
Битрейт : 640 Kbps
Каналы : 6 channels
Расположение каналов : Front: L C R, Side: L R, LFE
Частота : 48.0 KHz
Битовая глубина : 16 bits
Метод сжатия : Lossy
Размер потока : 595 MiB (6%)
Заголовок : DD 5.1 @ 640 kbps
Язык : English
Default : No
Forced : No

Audio #4
Идентификатор : 5
Формат : AC-3
Формат/Информация : Audio Coding 3
Профиль формата : Dolby Digital
Расширение режима : CM (complete main)
Идентификатор кодека : A_AC3
Продолжительность : 2h 9mn
Вид битрейта : Constant
Битрейт : 192 Kbps
Каналы : 2 channels
Расположение каналов : Front: L R
Частота : 48.0 KHz
Битовая глубина : 16 bits
Метод сжатия : Lossy
Размер потока : 178 MiB (2%)
Заголовок : DD 2.0 @ 192 kbps - Commentary
Язык : English
Default : No
Forced : No

Text #1
Идентификатор : 6
Формат : UTF-8
Идентификатор кодека : S_TEXT/UTF8
Идентификатор кодека/Информация : UTF-8 Plain Text
Заголовок : BD
Язык : Russian
Default : No
Forced : No

Text #2
Идентификатор : 7
Формат : UTF-8
Идентификатор кодека : S_TEXT/UTF8
Идентификатор кодека/Информация : UTF-8 Plain Text
Заголовок : forced
Язык : Ukrainian
Default : No
Forced : No

Text #3
Идентификатор : 8
Формат : UTF-8
Идентификатор кодека : S_TEXT/UTF8
Идентификатор кодека/Информация : UTF-8 Plain Text
Язык : English
Default : No
Forced : No

Menu
00:00:00.000 : en:00:00:00.000
00:07:43.296 : en:00:07:43.296
00:17:40.726 : en:00:17:40.726
00:25:22.813 : en:00:25:22.813
00:31:17.918 : en:00:31:17.918
00:41:30.530 : en:00:41:30.530
00:49:32.177 : en:00:49:32.177
00:57:07.007 : en:00:57:07.007
01:02:31.206 : en:01:02:31.206
01:06:06.629 : en:01:06:06.629
01:12:43.567 : en:01:12:43.567
01:17:19.635 : en:01:17:19.635
01:23:04.396 : en:01:23:04.396
01:28:47.113 : en:01:28:47.113
01:40:42.870 : en:01:40:42.870
01:45:32.701 : en:01:45:32.701
01:49:28.478 : en:01:49:28.478
01:55:37.722 : en:01:55:37.722
02:02:14.660 : en:02:02:14.660
pb.wtf



Скачать Аноним через торрент http://piratpic.net/images/40515446482862464594.jpg Скачать фильм Аноним через торрент бесплантно в хорошем качестве Описание: Фильм даст совершенно неожиданный ответ на извечный вопрос: а кем же «был или не был» Шекспир, и кто на самом деле скрывается за ... 9 10 1
Info! Золотая раздача, скачанное не засчитывается.
Торрент: Зарегистрирован [2012-03-16 14:42] · скачан: 57 раз
Статус: √ проверено
Размер: 9.24 GB
Как cкачать? Как скачать Аноним через торрент | qTorrent

28-11-2019 20:33  

Отключить всю рекламу на сайте

    Дорогой пользователь! Огромная просьба, поблагодарите релизера, оцените раздачу и оставьте свои комментарий, если Вы скачали Аноним через торрент бесплатно! Внесите свою лепту в развитие PiratBit!
    Комментировать посты могут только пользователи прошедшие не сложную регистрацию
    Показать сообщения:    

    Аноним через торрент
    Скачать бесплатно Аноним
    Аноним скачать торрент
    Аноним смотреть онлайн
    Cкачать фильм Аноним бесплатно
    Аноним скачать торрент в хорошем качестве
    Аноним смотреть онлайн бесплатно в хорошем качестве


    Вы не можете начинать темы
    Вы не можете отвечать на сообщения
    Вы не можете редактировать свои сообщения
    Вы не можете удалять свои сообщения
    Вы не можете голосовать в опросах
    Вы не можете прикреплять файлы к сообщениям
    Вы можете скачивать файлы