2 сезон

iTunes

MVO

1

2 сезон

iTunes

iTunes

1 сезон

RePack

30

Новинка

ВАЖНО

ИГРА 18+

pack

RePack

MK11
pack

Легкие деньги

RePack

jed

RePack

fifa19

RePack

RDR2

RePack

NEED FOR SPEED™ PAYBACK

4 сезон

9 сезон

Бесстыжие 9 сезон

Все сериалы

все сериалы на PB.wtf

RePack

FAR CRY 5

Anonymous, добрый вечер, мы не успеваем собрать деньги на оплату серверов за декабрь и январь, помогите нам пожалуйста в это трудное время. В качестве благодарности мы отключим Вам всю рекламу на сайте (укажите свой ник в строку Ваше имя)!

×
  
Magnet ссылка

Приключения Тинтина: Тайна Единорога / The Adventures of Tintin (Стивен Спилберг / Steven Spielberg) [2011, мультфильм, боевик, детектив, приключения, семейный, DVD9] R5 pb.wtf

Приключения Тинтина: Тайна Единорога через торрент pb.wtf

Размер: 7.46 GB | Добавлен: 8 лет 10 мес. назад | Торрент скачан:113 раз
Скачать  

16-03-2012 21:19 Приключения Тинтина: Тайна Единорога Скачать торрент  

[font="Georgia"]
Приключения Тинтина: Тайна Единорога / The Adventures of Tintin
«This year, discover how far adventure will take you.»
Страна: США, Новая Зеландия
Студия: Amblin Entertainment, Columbia Pictures, Hemisphere Media Capital, Nickelodeon Movies, Paramount Pictures, The Kennedy/Marshall Company, WingNut Films
Жанр: мультфильм, боевик, детектив, приключения, семейный
Год выпуска: 2011
Мировая премьера: 23 октября 2011
Российская премьера: 3 ноября 2011
Дата выхода DVD: 20 марта 2012
Дата выхода Blu-Ray: 27 марта 2012
Продолжительность: 01:42:31
Перевод: Профессиональный (дублированный) [Лицензия]
Cубтитры: русские, английские
Оригинальная аудиодорожка: английский
Режиссер: Стивен Спилберг / Steven Spielberg
Роли озвучивали: Джейми Белл, Энди Серкис, Дэниэл Крэйг, Саймон Пегг, Кэри Элвис, Тоби Джонс, Ник Фрост, Себастьян Роше, Маккензи Крук, Тони Карран
Роли дублировали: Филипп Бледный, Сергей Чихачев, Никита Прозоровский, Александр Новиков, Андрей Чубченко
Описание: Главный герой — молодой газетный репортёр Тинтин. Благодаря своей профессии он путешествует по всему миру и становится участником увлекательных приключений.

Бонусы: Путь к Тинтину, мир Тинтина, кто есть кто, все о снежке, музыка для фильма, 6 трейлеров

Качество: DVD9 R5
Формат: DVD-Video
Видео кодек: MPEG2
Аудио кодек: AC3
Видео: PAL 16:9 (720x576(0.522)) MPEG Video, 25,000 кадр/сек, 5411 Кбит/сек
Аудио #1: English (Dolby AC3, 6 ch) 384 Кбит/сек, 48,0 КГц
Аудио #2: Estonian (Dolby AC3, 6 ch) 384 Кбит/сек, 48,0 КГц
Аудио #3: Latvian (Dolby AC3, 2 ch) 192 Кбит/сек, 48,0 КГц
Аудио #4: Lithuanian (Dolby AC3, 2 ch) 192 Кбит/сек, 48,0 КГц
Аудио #5: Russian (Dolby AC3, 6 ch) 384 Кбит/сек, 48,0 КГц
Аудио #6: Ukrainian (Dolby AC3, 6 ch) 384 Кбит/сек, 48,0 КГц



Title:
Size: 7.46 Gb ( 7 823 276 KBytes ) - DVD-9
Enabled regions: 1, 2, 3, 4, 5, 6, 7, 8

VTS_01 :
Play Length: 01:42:31
Video: PAL 16:9 (720x576) VBR, Auto Letterboxed
Audio:
English (Dolby AC3, 6 ch)
Estonian (Dolby AC3, 6 ch)
Latvian (Dolby AC3, 2 ch)
Lithuanian (Dolby AC3, 2 ch)
Russian (Dolby AC3, 6 ch)
Ukrainian (Dolby AC3, 6 ch)
Subtitles:
English
Russian
Not specified

VTS_02 :
Play Length: 00:48:53+00:48:48+00:08:32+00:10:20+00:13:43+00:09:47+00:06:45
Video: PAL 16:9 (720x576) VBR, Auto Letterboxed
Audio:
English (Dolby AC3, 2 ch)
Subtitles:
Russian

VTS_03 :
Play Length: 00:02:36
Video: PAL 16:9 (720x576) VBR, Auto Letterboxed
Audio:
English (Dolby AC3, 6 ch)

VTS_04 :
Play Length: 00:01:56
Video: PAL 16:9 (720x576) VBR, Auto Letterboxed
Audio:
English (Dolby AC3, 6 ch)

VTS_05 :
Play Length: 00:01:47
Video: PAL 16:9 (720x576) VBR, Auto Letterboxed
Audio:
English (Dolby AC3, 6 ch)

VTS_06 :
Play Length: 00:02:27
Video: PAL 16:9 (720x576) VBR, Auto Letterboxed
Audio:
English (Dolby AC3, 6 ch)

VTS_07 :
Play Length: 00:01:21
Video: PAL 16:9 (720x576) VBR, Auto Letterboxed
Audio:
English (Dolby AC3, 6 ch)

VTS_08 :
Play Length: 00:00:50
Video: PAL 16:9 (720x576) VBR, Auto Letterboxed
Audio:
English (Dolby AC3, 6 ch)

VTS_09 :
Play Length: 00:00:14
Video: PAL 16:9 (720x576) VBR, Auto Pan&Scan
Audio:
English (Dolby AC3, 6 ch)

VTS_10 :
Play Length: 00:00:10
Video: PAL 16:9 (720x576) VBR, Auto Letterboxed

VTS_11 :
Play Length: 00:00:10
Video: PAL 4:3 (720x576) VBR
Audio:
English (Dolby AC3, 6 ch)
Subtitles:
English
Russian

VTS_12 :
Play Length: 00:00:09
Video: PAL 16:9 (720x576) VBR, Auto Pan&Scan

VTS_13 :
Play Length: 00:00:09
Video: PAL 16:9 (720x576) VBR, Auto Pan&Scan
Общее
Полное имя : G:\Новинки 2012\Prikljuchenija.Tintina.Tajna.Edinoroga.2011.DVD9\VIDEO_TS\VTS_01_3.VOB
Формат : MPEG-PS
Размер файла : 1024 Мбайт
Продолжительность : 19 м.
Режим общего битрейта : Переменный
Общий поток : 7480 Кбит/сек

Видео
Идентификатор : 224 (0xE0)
Формат : MPEG Video
Версия формата : Version 2
Профиль формата : Main@Main
Параметр BVOP формата : Да
Параметр матрицы формата : Выборочная
Продолжительность : 19 м.
Вид битрейта : Переменный
Битрейт : 5411 Кбит/сек
Максимальный битрейт : 9800 Кбит/сек
Ширина : 720 пикселей
Высота : 576 пикселей
Соотношение сторон : 16:9
Частота кадров : 25,000 кадров/сек
Стандарт вещания : PAL
Цветовое пространство : YUV
Субдискретизация насыщенности : 4:2:0
Битовая глубина : 8 бит
Тип развёртки : Чересстрочная
Порядок развёртки : Верхнее поле первое
Метод сжатия : С потерями
Бит/(Пиксели*Кадры) : 0.522
Размер потока : 741 Мбайт (72%)

Аудио #1
Идентификатор : 189 (0xBD)-128 (0x80)
Формат : AC-3
Формат/Информация : Audio Coding 3
Расширение режима : CM (complete main)
Режим смешивания : DVD-Video
Продолжительность : 19 м.
Вид битрейта : Постоянный
Битрейт : 384 Кбит/сек
Каналы : 6 каналов
Расположение каналов : Front: L C R, Side: L R, LFE
Частота : 48,0 КГц
Битовая глубина : 16 бит
Метод сжатия : С потерями
Задержка видео : -480 мс.
Размер потока : 52,6 Мбайт (5%)

Аудио #2
Идентификатор : 189 (0xBD)-129 (0x81)
Формат : AC-3
Формат/Информация : Audio Coding 3
Расширение режима : CM (complete main)
Режим смешивания : DVD-Video
Продолжительность : 19 м.
Вид битрейта : Постоянный
Битрейт : 384 Кбит/сек
Каналы : 6 каналов
Расположение каналов : Front: L C R, Side: L R, LFE
Частота : 48,0 КГц
Битовая глубина : 16 бит
Метод сжатия : С потерями
Задержка видео : -480 мс.
Размер потока : 52,6 Мбайт (5%)

Аудио #3
Идентификатор : 189 (0xBD)-130 (0x82)
Формат : AC-3
Формат/Информация : Audio Coding 3
Профиль формата : Dolby Digital
Расширение режима : CM (complete main)
Режим смешивания : DVD-Video
Продолжительность : 19 м.
Вид битрейта : Постоянный
Битрейт : 192 Кбит/сек
Каналы : 2 канала
Расположение каналов : Front: L R
Частота : 48,0 КГц
Битовая глубина : 16 бит
Метод сжатия : С потерями
Задержка видео : -384 мс.
Размер потока : 26,3 Мбайт (3%)

Аудио #4
Идентификатор : 189 (0xBD)-131 (0x83)
Формат : AC-3
Формат/Информация : Audio Coding 3
Профиль формата : Dolby Digital
Расширение режима : CM (complete main)
Режим смешивания : DVD-Video
Продолжительность : 19 м.
Вид битрейта : Постоянный
Битрейт : 192 Кбит/сек
Каналы : 2 канала
Расположение каналов : Front: L R
Частота : 48,0 КГц
Битовая глубина : 16 бит
Метод сжатия : С потерями
Задержка видео : -384 мс.
Размер потока : 26,3 Мбайт (3%)

Аудио #5
Идентификатор : 189 (0xBD)-132 (0x84)
Формат : AC-3
Формат/Информация : Audio Coding 3
Расширение режима : CM (complete main)
Режим смешивания : DVD-Video
Продолжительность : 19 м.
Вид битрейта : Постоянный
Битрейт : 384 Кбит/сек
Каналы : 6 каналов
Расположение каналов : Front: L C R, Side: L R, LFE
Частота : 48,0 КГц
Битовая глубина : 16 бит
Метод сжатия : С потерями
Задержка видео : -480 мс.
Размер потока : 52,6 Мбайт (5%)

Аудио #6
Идентификатор : 189 (0xBD)-133 (0x85)
Формат : AC-3
Формат/Информация : Audio Coding 3
Расширение режима : CM (complete main)
Режим смешивания : DVD-Video
Продолжительность : 19 м.
Вид битрейта : Постоянный
Битрейт : 384 Кбит/сек
Каналы : 6 каналов
Расположение каналов : Front: L C R, Side: L R, LFE
Частота : 48,0 КГц
Битовая глубина : 16 бит
Метод сжатия : С потерями
Задержка видео : -480 мс.
Размер потока : 52,6 Мбайт (5%)

Текст #1
Идентификатор : 189 (0xBD)-32 (0x20)
Формат : RLE
Формат/Информация : Run-length encoding
Режим смешивания : DVD-Video
Продолжительность : 19 м.
Задержка видео : -200 мс.

Текст #2
Идентификатор : 189 (0xBD)-33 (0x21)
Формат : RLE
Формат/Информация : Run-length encoding
Режим смешивания : DVD-Video
Продолжительность : 19 м.
Задержка видео : -280 мс.










pb.wtf



Скачать Приключения Тинтина: Тайна Единорога через торрент http://i1.imageban.ru/out/2012/02/26/8898b32119c9c716c2f1f6eeb6a34541.jpg Скачать фильм Приключения Тинтина: Тайна Единорога через торрент бесплантно в хорошем качестве Описание: Главный герой — молодой газетный репортёр Тинтин. Благодаря своей профессии он путешествует по всему миру и становится участником ... 4.8 10 5
Info! Золотая раздача, скачанное не засчитывается.
Торрент: Зарегистрирован [2012-03-16 21:19] · скачан: 113 раз
Статус: √ проверено
Размер: 7.46 GB
Как cкачать? Как скачать Приключения Тинтина: Тайна Единорога через торрент | UTorrent

% Раздел Тема Автор DL S | L
Мультфильмы (48-60 fps) [ 4.44 GB ] Тинтина: Тайна Единорога / The Adventures of Tintin [2011 мультфильм WEB-DLRip 720p / 60 FPS ] от R.G. HD-Films slaventi-69 Скачать
3 | 0
Аркады [ 7.44 GB ] The Adventures of Tintin: Secret of the Unicorn / Тинтина: Тайна Единорога 2011[лицензияRUAction / Arcade / 3D] Shmel Скачать
1 | 0

28-11-2019 20:33  

Отключить всю рекламу на сайте

17-03-2012 00:47 Приключения Тинтина: Тайна Единорога Скачать торрент  

Кто видел мульт?pb.wtf



17-03-2012 04:52 Приключения Тинтина: Тайна Единорога Скачать торрент  

Говорят хороший. и стоит просмотраpb.wtf



17-03-2012 05:49 Приключения Тинтина: Тайна Единорога Скачать торрент  

А когда будет Рип?pb.wtf



17-03-2012 13:25 Приключения Тинтина: Тайна Единорога Скачать торрент  

Не качайте,фильм без перевода!pb.wtf



17-03-2012 13:31 Приключения Тинтина: Тайна Единорога Скачать торрент  

Прошу прощения-перевод имеется,фильм классный,автору спасибо!pb.wtf



28-02-2013 15:09 Приключения Тинтина: Тайна Единорога Скачать торрент  

спасибо хорошый мульт :)
pb.wtf



    Дорогой пользователь! Огромная просьба, поблагодарите релизера, оцените раздачу и оставьте свои комментарий, если Вы скачали Приключения Тинтина: Тайна Единорога через торрент бесплатно! Внесите свою лепту в развитие PiratBit!
    Комментировать посты могут только пользователи прошедшие не сложную регистрацию
    Показать сообщения:    

    Приключения Тинтина: Тайна Единорога через торрент
    Скачать бесплатно Приключения Тинтина: Тайна Единорога
    Приключения Тинтина: Тайна Единорога скачать торрент
    Приключения Тинтина: Тайна Единорога смотреть онлайн
    Cкачать фильм Приключения Тинтина: Тайна Единорога бесплатно
    Приключения Тинтина: Тайна Единорога скачать торрент в хорошем качестве
    Приключения Тинтина: Тайна Единорога смотреть онлайн бесплатно в хорошем качестве


    Вы не можете начинать темы
    Вы не можете отвечать на сообщения
    Вы не можете редактировать свои сообщения
    Вы не можете удалять свои сообщения
    Вы не можете голосовать в опросах
    Вы не можете прикреплять файлы к сообщениям
    Вы можете скачивать файлы