2 сезон

iTunes

1 сезон

1

iTunes

iTunes

iTunes

1 сезон

RePack

30

ИГРА 18+

pack

ВАЖНО

!!Акция!!

Alien_RageХит недели

RePack

MK11
pack

Забери бонус

RePack

jed

!!Акция!!

Alien_Rage

RePack

fifa19

RePack

Assassins Creed: Odyssey

RePack

NEED FOR SPEED™ PAYBACK

4 сезон

9 сезон

Бесстыжие 9 сезон

Все сериалы

все сериалы на PB.wtf

RePack

FAR CRY 5
  

Охотник / The Hunter (Дэниел Неттхейм) [2011 г., драма, BDRip (720p)] [AVO Визгунов] pb.wtf

Охотник через торрент pb.wtf

Размер: 4.69 GB | Добавлен: 8 лет 7 мес. назад | Торрент скачан:61 раз
Скачать  

18-03-2012 12:35 Охотник Скачать торрент  

Охотник / The Hunter
[font=serif]
Год выпуска: 2011
Страна: Австралия / Porchlight Films
Жанр: драма
Продолжительность: 01:44:14
Перевод: Авторский (одноголосный) [Визгунов]
Режиссер: Дэниел Неттхейм

В ролях: Уиллем Дефо, Сэм Нил, Фрэнсис О’Коннор, Салливан Степлтон, Моргана Дейвис, Каллэн Мулвей, Яцек Коман, Дэниэл Уилли, Джон Брамптон, Джэйми Тимони

Описание: Психологическая драма, основанная на известном романе Джулии Ли "Охотник", рассказывающая историю Мартина, отправленного из Европы таинственной биотехнологической компанией в пустыню Тасмании на охоту за последним тасманским тигром.
Внимание лицензии не будет

Качество: BDRip (720p)
Формат: MKV
Видео кодек: Другой MPEG4
Аудио кодек: AC3
Видео: 5570kb/s, 1280x544 24.000 fps
Аудио#1: Russian AC3, 448 kb/s (6 ch)48.0 KHz
Аудио#2: Englsh: AC3, 448 kb/s (6 ch)48.0 KHz
Субтитры: Russian, Englsh
General
Unique ID : 188516918933122601773829388883060826965 (0x8DD309B51ADDD06CA585B3ED5413A355)
Complete name : D:\Merged Volume 'Локальный диск ' (E)\The.Hunter.2011.BDRip.720p.mkv
Format : Matroska
Format version : Version 2
File size : 4.69 GiB
Duration : 1h 44mn
Overall bit rate : 6 443 Kbps
Encoded date : UTC 2012-03-05 00:32:09
Writing application : mkvmerge v4.8.0 ('I Got The...') сборка от May 24 2011 03:12:58
Writing library : libebml v1.2.0 + libmatroska v1.1.0

Video
ID : 1
Format : AVC
Format/Info : Advanced Video Codec
Format profile : High@L4.1
Format settings, CABAC : Yes
Format settings, ReFrames : 11 frames
Muxing mode : Header stripping
Codec ID : V_MPEG4/ISO/AVC
Duration : 1h 44mn
Bit rate : 5 570 Kbps
Width : 1 280 pixels
Height : 544 pixels
Display aspect ratio : 2.35:1
Frame rate : 24.000 fps
Color space : YUV
Chroma subsampling : 4:2:0
Bit depth : 8 bits
Scan type : Progressive
Bits/(Pixel*Frame) : 0.333
Stream size : 3.95 GiB (84%)
Writing library : x264 core 120 r2146 bcd41db
Encoding settings : cabac=1 / ref=11 / deblock=1:-3:-3 / analyse=0x3:0x133 / me=umh / subme=10 / psy=1 / psy_rd=1.00:0.00 / mixed_ref=1 / me_range=32 / chroma_me=1 / trellis=2 / 8x8dct=1 / cqm=0 / deadzone=21,11 / fast_pskip=1 / chroma_qp_offset=-2 / threads=12 / sliced_threads=0 / nr=0 / decimate=0 / interlaced=0 / bluray_compat=0 / constrained_intra=0 / bframes=6 / b_pyramid=2 / b_adapt=2 / b_bias=0 / direct=3 / weightb=1 / open_gop=0 / weightp=2 / keyint=250 / keyint_min=24 / scenecut=40 / intra_refresh=0 / rc_lookahead=60 / rc=2pass / mbtree=1 / bitrate=5570 / ratetol=1.0 / qcomp=0.60 / qpmin=0 / qpmax=69 / qpstep=4 / cplxblur=20.0 / qblur=0.5 / vbv_maxrate=50000 / vbv_bufsize=50000 / nal_hrd=none / ip_ratio=1.50 / aq=1:1.00
Language : English
Default : Yes
Forced : No

Audio #1
ID : 2
Format : AC-3
Format/Info : Audio Coding 3
Mode extension : CM (complete main)
Muxing mode : Header stripping
Codec ID : A_AC3
Duration : 1h 44mn
Bit rate mode : Constant
Bit rate : 448 Kbps
Channel(s) : 6 channels
Channel positions : Front: L C R, Side: L R, LFE
Sampling rate : 48.0 KHz
Bit depth : 16 bits
Compression mode : Lossy
Stream size : 334 MiB (7%)
Title : Авторский одноголосый, С.Визгунов
Language : Russian
Default : Yes
Forced : No

Audio #2
ID : 3
Format : AC-3
Format/Info : Audio Coding 3
Mode extension : CM (complete main)
Muxing mode : Header stripping
Codec ID : A_AC3
Duration : 1h 44mn
Bit rate mode : Constant
Bit rate : 448 Kbps
Channel(s) : 6 channels
Channel positions : Front: L C R, Side: L R, LFE
Sampling rate : 48.0 KHz
Bit depth : 16 bits
Compression mode : Lossy
Stream size : 334 MiB (7%)
Language : English
Default : No
Forced : No

Text #1
ID : 4
Format : UTF-8
Codec ID : S_TEXT/UTF8
Codec ID/Info : UTF-8 Plain Text
Title : merrzavka
Language : Russian
Default : No
Forced : No

Text #2
ID : 5
Format : UTF-8
Codec ID : S_TEXT/UTF8
Codec ID/Info : UTF-8 Plain Text
Language : English
Default : No
Forced : No
pb.wtf



Скачать Охотник через торрент http://piratpic.net/images/56110109865870771545.png Скачать фильм Охотник через торрент бесплантно в хорошем качестве Описание: Психологическая драма, основанная на известном романе Джулии Ли "Охотник", рассказывающая историю Мартина, отправленного из ... 4.8 10 8
Info! Золотая раздача, скачанное не засчитывается.
Торрент: Зарегистрирован [2012-03-18 12:35] · скачан: 61 раз
Статус: √ проверено
Размер: 4.69 GB
Как cкачать? Как скачать Охотник через торрент | qTorrent

% Раздел Тема Автор DL S | L
Фильмы (HD 720p, 1080p) (48-60 fps) [ 4.96 GB ] Последний охотник на ведьм / The Last Witch Hunter [2015 BDRip 720p 60fps от еnvy / NNNB] DUB еnvy Скачать
16 | 0
Фильмы 2017 [DVDrip, WEB-DLRip, HDrip] (DUB, MVO) [ 2.18 GB ] Бун: Охотник за головами / Boone: The Bounty Hunter [2017 BDRip-AVC] MVO - ExKinoRay Enigma2010 Скачать
22 | 0
T Фильмы 2019-2020 (Звук TS, Cam, VO, DVO) [ 1.46 GB ] Охотники на ведьм / Zlogonje / The Witch Hunters [2018 HDTVRip Любительский ] PsYcho Скачать
3 | 0
Ultra HD (UHD: 2K, 4K, 8K) — видео сверхвысокой чёткости [ 73.97 GB ] Охотник на оленей / The Deer Hunter [1978 военный UHD BDRemux 2160p] 3xMVO + 4xAVO sheker187 Скачать
1 | 0
Ultra HD (UHD: 2K, 4K, 8K) — видео сверхвысокой чёткости [ 58.68 GB ] Охотник на оленей / The Deer Hunter [1978 военный UHD BDRip 2160p] 3xMVO + 5xAVO sheker187 Скачать
1 | 0
Фильмы 2018 [DVDrip, WEB-DLRip, HDrip] (DUB, MVO) [ 1.46 GB ] Наследие охотника на белохвостого оленя / The Legacy of a Whitetail Deer Hunter [2018 WEB-DLRip-AVC] MVO [HDRezka Studio] bober100 Скачать
1 | 0
Фильмы [HD 720p, 1080p] (Звук Cam, VO, DVO) [ 1.45 GB ] Охотники на женщин / Охотники за девушкой / The Girl Hunters [1963 BDRip 720р] [VO] killermax2013 Скачать
1 | 0

28-11-2019 20:33  

Отключить всю рекламу на сайте

18-03-2012 14:23 Охотник Скачать торрент  

Resident1948​ с интернета на этот год 70 фильмов будет дублированных 50 авторскихpb.wtf



18-03-2012 18:27 Охотник Скачать торрент  

Офигенный фильм, советую посмотреть.pb.wtf



23-03-2012 10:24 Охотник Скачать торрент  

спасибо за Сергея Визгунова, всегда ищу одноголоску. мне так больше нравится =)pb.wtf



    Дорогой пользователь! Огромная просьба, поблагодарите релизера, оцените раздачу и оставьте свои комментарий, если Вы скачали Охотник через торрент бесплатно! Внесите свою лепту в развитие PiratBit!
    Комментировать посты могут только пользователи прошедшие не сложную регистрацию
    Показать сообщения:    

    Охотник через торрент
    Скачать бесплатно Охотник
    Охотник скачать торрент
    Охотник смотреть онлайн
    Cкачать фильм Охотник бесплатно
    Охотник скачать торрент в хорошем качестве
    Охотник смотреть онлайн бесплатно в хорошем качестве


    Вы не можете начинать темы
    Вы не можете отвечать на сообщения
    Вы не можете редактировать свои сообщения
    Вы не можете удалять свои сообщения
    Вы не можете голосовать в опросах
    Вы не можете прикреплять файлы к сообщениям
    Вы можете скачивать файлы