Ссылка на приватное зеркало нашего сайта всего за 1$. Внимание количество ограничено!!!

2 сезон

iTunes

1 сезон

1

iTunes

iTunes

iTunes

1 сезон

RePack

30

ИГРА 18+

pack

ВАЖНО

!!Акция!!

Alien_RageХит недели

RePack

MK11
pack

Забери бонус

RePack

jed

!!Акция!!

Alien_Rage

RePack

fifa19

RePack

Assassins Creed: Odyssey

RePack

NEED FOR SPEED™ PAYBACK

4 сезон

9 сезон

Бесстыжие 9 сезон

Все сериалы

все сериалы на PB.wtf

RePack

FAR CRY 5
  

Имитатор / Copycat (Джон Эмиел) [1995 г., триллер, криминал, детектив, BDRip (720p)] pb.wtf

Имитатор через торрент pb.wtf

Размер: 6.27 GB | Добавлен: 8 лет 7 мес. назад | Торрент скачан:13 раз
Скачать  

18-03-2012 17:51 Имитатор Скачать торрент  



Имитатор / Copycat

Год выпуска: 1995
Страна: США
Жанр: триллер, криминал, детектив
Продолжительность: 02:03:05
Перевод: Профессиональный (многоголосый, закадровый)
Cубтитры: Русские, Английские

Режиссер: Джон Эмиел
Продюссер: Арнон Милчэн, Марк Тарлов, Джозеф М. Карачиоло мл.
Сценарий: Энн Бидермен, Дэвид Мэдсен

Бюджет: $20 000 000

лицам до 17 лет обязательно присутствие взрослого
Мировой рейтинг IMDB 6.50 (22 691)


В ролях: Сигурни Уивер, Холли Хантер, Дермот Малруни, Уильям МакНамара, Гарри Конник мл., Дж. Э. Фримен, Уилл Пэттон, Джон Ротмен, Шэннон О’Хёрли, Боб Грин

Описание: 9 из 10 серийных убийц — это белые американцы в возрасте от 20 до 35 лет. В штате Флорида было потрачено 8 миллионов долларов, чтобы казнить серийного убийцу Теда Банди. Не лучше ли было предоставить его в распоряжение ученых, чтобы избежать появления новых «тедов банди» в будущем?» — задает с кафедры вопрос слушателям ученая-криминалист, эксперт с двадцатилетним стажем, доктор Хелен Хадсон.Ответ она получает через несколько минут в туалете, где, повесив ее саму за шею так, чтобы мыски ног едва касались унитаза, маньяк на ее глазах убивает ее охранника. В результате перенесенного шока она 13 месяцев пребывает в состоянии панического страха, не выходя из квартиры, пока к ней не обращаются за помощью полицейские-напарники, красавец Рубен и симпатичная умница с колючим язычком М. Джей (так, инициалами ее называют коллеги).Они ведут расследование серии убийств, совершаемых очередным маньяком. Маньяк, сумасшедший незаурядного ума, практически бросает вызов Хелен, начав эту «шахматную партию» в манере «бостонского душителя»...
Похожие раздачи: Имитатор

Качество: BDRip (720p)
Формат: MKV
Видео кодек: H.264
Аудио кодек: AC3
Видео: 1280 x 534 (2.397) at 23.976 fps AVC at 4823 Кбит/сек
Аудио#1: AC-3 at 384 Кбит/сек 6 каналов, 48,0 КГц Гемини Фильм
Аудио#2: AC-3 at 192 Кбит/сек 2 канала, 48,0 КГц RUS
Аудио#3: AC-3 at 192 Кбит/сек 2 канала, 48,0 КГц Гаврилов
Аудио#4: AC-3 at 192 Кбит/сек 2 канала, 48,0 КГц Горчаков
Аудио#5: DTS at 1510 Кбит/сек 6 каналов, 48,0 КГц ENG
Общее
Уникальный идентификатор : 229712719234172429267745947874647238835 (0xACD10F7A2C706990890A7EF76CBA68B3)
Полное имя : D:\Фильмы\Copycat.1995.P.BDRip.720p.mkv
Формат : Matroska
Версия формата : Version 2
Размер файла : 6,27 Гбайт
Продолжительность : 2 ч. 3 м.
Общий поток : 7296 Кбит/сек
Название фильма : -Talian-
Дата кодирования : UTC 2011-08-17 14:42:44
Программа кодирования : mkvmerge v3.3.0 ('Language') сборка от May 14 2010 17:11:50
Библиотека кодирования : libebml v0.8.0 + libmatroska v0.9.0

Видео
Идентификатор : 1
Формат : AVC
Формат/Информация : Advanced Video Codec
Профиль формата : High@L4.1
Параметр CABAC формата : Да
Параметр ReFrames формата : 12 кадров
Идентификатор кодека : V_MPEG4/ISO/AVC
Продолжительность : 2 ч. 3 м.
Битрейт : 4823 Кбит/сек
Ширина : 1280 пикселей
Высота : 534 пикселя
Соотношение сторон : 2,40:1
Частота кадров : 23,976 кадра/сек
Цветовое пространство : YUV
Субдискретизация насыщенности : 4:2:0
Битовая глубина : 8 бит
Тип развёртки : Прогрессивная
Бит/(Пиксели*Кадры) : 0.294
Размер потока : 4,02 Гбайт (64%)
Заголовок : Copycat.1995.BluRay.720p.DTS.x264-CHD
Библиотека кодирования : x264 core 102 r1666 d058f37
Настройки программы : cabac=1 / ref=12 / deblock=1:-3:-3 / analyse=0x3:0x113 / me=umh / subme=9 / psy=1 / psy_rd=1.05:0.10 / mixed_ref=1 / me_range=32 / chroma_me=1 / trellis=2 / 8x8dct=1 / cqm=2 / deadzone=21,11 / fast_pskip=0 / chroma_qp_offset=-2 / threads=6 / sliced_threads=0 / nr=0 / decimate=1 / interlaced=0 / constrained_intra=0 / bframes=6 / b_pyramid=2 / b_adapt=2 / b_bias=0 / direct=3 / weightb=1 / open_gop=0 / weightp=2 / keyint=250 / keyint_min=25 / scenecut=40 / intra_refresh=0 / rc_lookahead=40 / rc=2pass / mbtree=1 / bitrate=4823 / ratetol=1.0 / qcomp=0.60 / qpmin=10 / qpmax=51 / qpstep=4 / cplxblur=20.0 / qblur=0.5 / vbv_maxrate=50000 / vbv_bufsize=50000 / ip_ratio=1.40 / aq=1:0.80 / nal_hrd=none
Язык : English
Default : Нет
Forced : Нет

Аудио #1
Идентификатор : 2
Формат : AC-3
Формат/Информация : Audio Coding 3
Расширение режима : CM (complete main)
Идентификатор кодека : A_AC3
Продолжительность : 2 ч. 3 м.
Вид битрейта : Постоянный
Битрейт : 384 Кбит/сек
Каналы : 6 каналов
Расположение каналов : Front: L C R, Side: L R, LFE
Частота : 48,0 КГц
Битовая глубина : 16 бит
Метод сжатия : С потерями
Размер потока : 338 Мбайт (5%)
Заголовок : MVO-Гемини Фильм
Язык : Russian
Default : Да
Forced : Нет

Аудио #2
Идентификатор : 3
Формат : AC-3
Формат/Информация : Audio Coding 3
Расширение режима : CM (complete main)
Идентификатор кодека : A_AC3
Продолжительность : 2 ч. 3 м.
Вид битрейта : Постоянный
Битрейт : 192 Кбит/сек
Каналы : 2 канала
Расположение каналов : Front: L R
Частота : 48,0 КГц
Битовая глубина : 16 бит
Метод сжатия : С потерями
Размер потока : 169 Мбайт (3%)
Заголовок : MVO
Язык : Russian
Default : Нет
Forced : Нет

Аудио #3
Идентификатор : 4
Формат : AC-3
Формат/Информация : Audio Coding 3
Расширение режима : CM (complete main)
Идентификатор кодека : A_AC3
Продолжительность : 2 ч. 3 м.
Вид битрейта : Постоянный
Битрейт : 192 Кбит/сек
Каналы : 2 канала
Расположение каналов : Front: L R
Частота : 48,0 КГц
Битовая глубина : 16 бит
Метод сжатия : С потерями
Размер потока : 169 Мбайт (3%)
Заголовок : AVO-Гаврилов
Язык : Russian
Default : Нет
Forced : Нет

Аудио #4
Идентификатор : 5
Формат : AC-3
Формат/Информация : Audio Coding 3
Расширение режима : CM (complete main)
Идентификатор кодека : A_AC3
Продолжительность : 2 ч. 3 м.
Вид битрейта : Постоянный
Битрейт : 192 Кбит/сек
Каналы : 2 канала
Расположение каналов : Front: L R
Частота : 48,0 КГц
Битовая глубина : 16 бит
Метод сжатия : С потерями
Размер потока : 169 Мбайт (3%)
Заголовок : AVO- Горчаков
Язык : Russian
Default : Нет
Forced : Нет

Аудио #5
Идентификатор : 6
Формат : DTS
Формат/Информация : Digital Theater Systems
Идентификатор кодека : A_DTS
Продолжительность : 2 ч. 3 м.
Вид битрейта : Постоянный
Битрейт : 1510 Кбит/сек
Каналы : 6 каналов
Расположение каналов : Front: L C R, Side: L R, LFE
Частота : 48,0 КГц
Битовая глубина : 24 бит
Метод сжатия : С потерями
Размер потока : 1,30 Гбайт (21%)
Заголовок : Original
Язык : English
Default : Нет
Forced : Нет

Текст #1
Идентификатор : 7
Формат : UTF-8
Идентификатор кодека : S_TEXT/UTF8
Идентификатор кодека/Информация : UTF-8 Plain Text
Заголовок : Sub
Язык : Russian
Default : Да
Forced : Нет

Текст #2
Идентификатор : 8
Формат : UTF-8
Идентификатор кодека : S_TEXT/UTF8
Идентификатор кодека/Информация : UTF-8 Plain Text
Заголовок : Sub
Язык : English
Default : Нет
Forced : Нет

Меню
00:00:00.000 : 00:00:00.000
00:10:25.500 : 00:10:25.500
00:20:50.249 : 00:20:50.249
00:31:40.107 : 00:31:40.107
00:38:16.252 : 00:38:16.252
00:47:07.825 : 00:47:07.825
00:58:07.067 : 00:58:07.067
01:09:16.402 : 01:09:16.402
01:21:54.952 : 01:21:54.952
01:32:50.607 : 01:32:50.607
01:39:26.210 : 01:39:26.210
01:49:34.151 : 01:49:34.151
01:53:35.392 : 01:53:35.392
pb.wtf



Скачать Имитатор через торрент http://pic.kartinco.top/images/2011/af2nh5bl9t.png Скачать фильм Имитатор через торрент бесплантно в хорошем качестве Описание: 9 из 10 серийных убийц — это белые американцы в возрасте от 20 до 35 лет. В штате Флорида было потрачено 8 миллионов долларов, ... 5 10 3
Info! Золотая раздача, скачанное не засчитывается.
Торрент: Зарегистрирован [2012-03-18 17:51] · скачан: 13 раз
Статус: √ проверено
Размер: 6.27 GB
Как cкачать? Как скачать Имитатор через торрент | qTorrent

% Раздел Тема Автор DL S | L
Фильмы [HD 720p, 1080p] (Хороший звук DUB, MVO) [ 14.47 GB ] Имитатор / Copycat [1995 BDRip 1080p by msltel] 2 x MVO 3 x AVO msltel Скачать
1 | 0
Фильмы [HD 720p, 1080p] (Хороший звук DUB, MVO) [ 5.92 GB ] Имитатор / Copycat [1995 BDRip 720p by msltel] 2 x MVO 3 x AVO msltel Скачать
1 | 0
Фильмы с авторской озвучкой [ 1.62 GB ] Имитатор / Copycat [1995 BDRip] [AVO] + [AVO] killermax2013 Скачать
1 | 0
Фильмы [HD 720p, 1080p] (Хороший звук DUB, MVO) [ 7.76 GB ] Имитатор / Copycat [1995 BDRip 1080p] MVO + Original -Lexx- Скачать
1 | 0
Фильмы до 2000 г. [ 1.64 GB ] Имитатор / Copycat [1995 HDTVRip] feldeger Скачать
1 | 0


Последний раз редактировалось: Sудья (2012-03-18 17:58), всего редактировалось 1 раз

28-11-2019 20:33  

Отключить всю рекламу на сайте

18-03-2012 17:55 Имитатор Скачать торрент  

Sудья
В этом разделе добавление MediaInfo - обязательно!pb.wtf



18-03-2012 17:59 Имитатор Скачать торрент  

shuller писал(а):

Sудья
В этом разделе добавление MediaInfo - обязательно!

уже добавил.pb.wtf



    Дорогой пользователь! Огромная просьба, поблагодарите релизера, оцените раздачу и оставьте свои комментарий, если Вы скачали Имитатор через торрент бесплатно! Внесите свою лепту в развитие PiratBit!
    Комментировать посты могут только пользователи прошедшие не сложную регистрацию
    Показать сообщения:    

    Имитатор через торрент
    Скачать бесплатно Имитатор
    Имитатор скачать торрент
    Имитатор смотреть онлайн
    Cкачать фильм Имитатор бесплатно
    Имитатор скачать торрент в хорошем качестве
    Имитатор смотреть онлайн бесплатно в хорошем качестве


    Вы не можете начинать темы
    Вы не можете отвечать на сообщения
    Вы не можете редактировать свои сообщения
    Вы не можете удалять свои сообщения
    Вы не можете голосовать в опросах
    Вы не можете прикреплять файлы к сообщениям
    Вы можете скачивать файлы