Ссылка на приватное зеркало нашего сайта всего за 1$. Внимание количество ограничено!!!

2 сезон

iTunes

1 сезон

1

iTunes

iTunes

iTunes

1 сезон

RePack

30

ИГРА 18+

pack

ВАЖНО

!!Акция!!

Alien_RageХит недели

RePack

MK11
pack

Забери бонус

RePack

jed

!!Акция!!

Alien_Rage

RePack

fifa19

RePack

Assassins Creed: Odyssey

RePack

NEED FOR SPEED™ PAYBACK

4 сезон

9 сезон

Бесстыжие 9 сезон

Все сериалы

все сериалы на PB.wtf

RePack

FAR CRY 5
  

Линкольн для адвоката / The Lincoln Lawyer (Брэд Фурман) [2011 г., Tриллер, драма, криминал, BDRip (720p), лицензия] pb.wtf

Линкольн для адвоката через торрент pb.wtf

Размер: 7.81 GB | Добавлен: 8 лет 7 мес. назад | Торрент скачан:78 раз
Скачать  

18-03-2012 19:45 Линкольн для адвоката Скачать торрент  

Линкольн для адвоката / The Lincoln Lawyer
[font=serif]
Год выпуска: 2011
Страна: США Lionsgate, Lakeshore Entertainment, Sidney Kimmel Entertainment See more
Жанр: Tриллер, драма, криминал
Продолжительность: 01:58:19
Перевод: Дублированное [лицензия]
Тип релиза: Лицензия

Режиссер: Брэд Фурман

В ролях: Мэттью МакКонахи, Мариса Томей, Райан Филипп, Уильям Х. Мэйси, Джош Лукас, Джон Легуизамо, Майкл Пенья, Боб Гантон, Фрэнсис Фишер, Брайан Крэнстон, Лоуренс Мэйсон, Маргарита Левиева, Пелл Джеймс, Ши Уигхэм, Кэтрин Монниг, Майкл Паре, Микаэла Конлин, Маккензи Аладжем, Регги Бэйкер, Хавьер Грайеда, Дэвид Кастро, Конор О’Фэррелл, Чарльз Хирш, Роланд Фелисиано, Джефф Коул, Дон Смит, Эрин Каруфел, Сэм Аптон, Мэттью Морено

Описание: Микки Холлер — блестящий и удачливый адвокат из Лос-Анджелеса, чей яркий имидж и образ жизни отлично дополняет его любимая машина «Линкольн». Очередное дело — нападение богатого клиента Луи Руле на проститутку сначала казалось легким, и он без труда добился оправдательного приговора для подзащитного. Но вскоре Микки понимает, что его клиент скрывает правду. Пока Холлер пытается вывести Руле на чистую воду, его подставляют по-крупному, и теперь уже угроза тюремного заключения нависает над самим Холлером.

Сохранены оригинальные чаптеры Blu-Ray

Качество: BDRip (720p)
Формат: MKV
Видео кодек: AVC
Аудио кодек: DTS
Видео: MPEG-4 AVC, 6415 Кбит/с, 1280x544, 23.976 fps
Аудио#1: Русский (DTS, 6 ch, 1510 Кбит/с) 48.0 KHz
Аудио#2: Английский (DTS, 6 ch, 1510 Кбит/с) 48.0 KHz
Субтитры: Английские
General
Unique ID : 197693740885334031534262850316463885765 (0x94BA6DF642E622C984063DC693E5CDC5)
Complete name : D:\Linkoln.dlya.advokata.2011.x264.BDRip.(720p)-CtrlHD.mkv
Format : Matroska
Format version : Version 2
File size : 7.81 GiB
Duration : 1h 58mn
Overall bit rate : 9 434 Kbps
Movie name : -Talian-
Encoded date : UTC 2011-07-26 19:54:51
Writing application : mkvmerge v3.3.0 ('Language') сборка от May 14 2010 17:11:50
Writing library : libebml v0.8.0 + libmatroska v0.9.0

Video
ID : 1
Format : AVC
Format/Info : Advanced Video Codec
Format profile : High@L4.1
Format settings, CABAC : Yes
Format settings, ReFrames : 9 frames
Codec ID : V_MPEG4/ISO/AVC
Duration : 1h 58mn
Bit rate : 6 415 Kbps
Width : 1 280 pixels
Height : 544 pixels
Display aspect ratio : 2.35:1
Frame rate : 23.976 fps
Color space : YUV
Chroma subsampling : 4:2:0
Bit depth : 8 bits
Scan type : Progressive
Bits/(Pixel*Frame) : 0.384
Stream size : 5.15 GiB (66%)
Title : The Lincoln Lawyer 2011 720p BluRay x264 DTS-CtrlHD
Writing library : x264 core 115 r2008 4c552d8
Encoding settings : cabac=1 / ref=9 / deblock=1:-2:-2 / analyse=0x3:0x133 / me=umh / subme=10 / psy=1 / psy_rd=1.00:0.00 / mixed_ref=1 / me_range=32 / chroma_me=1 / trellis=2 / 8x8dct=1 / cqm=0 / deadzone=21,11 / fast_pskip=1 / chroma_qp_offset=-2 / threads=12 / sliced_threads=0 / nr=0 / decimate=1 / interlaced=0 / bluray_compat=0 / constrained_intra=0 / bframes=3 / b_pyramid=2 / b_adapt=2 / b_bias=0 / direct=3 / weightb=1 / open_gop=1 / weightp=2 / keyint=250 / keyint_min=23 / scenecut=40 / intra_refresh=0 / rc_lookahead=60 / rc=2pass / mbtree=1 / bitrate=6415 / ratetol=1.0 / qcomp=0.60 / qpmin=0 / qpmax=69 / qpstep=4 / cplxblur=20.0 / qblur=0.5 / ip_ratio=1.40 / aq=1:1.00
Language : English
Default : No
Forced : No

Audio #1
ID : 2
Format : DTS
Format/Info : Digital Theater Systems
Codec ID : A_DTS
Duration : 1h 58mn
Bit rate mode : Constant
Bit rate : 1 510 Kbps
Channel(s) : 6 channels
Channel positions : Front: L C R, Side: L R, LFE
Sampling rate : 48.0 KHz
Bit depth : 16 bits
Compression mode : Lossy
Stream size : 1.25 GiB (16%)
Title : Dub-Blu-ray
Language : Russian
Default : Yes
Forced : No

Audio #2
ID : 3
Format : DTS
Format/Info : Digital Theater Systems
Codec ID : A_DTS
Duration : 1h 58mn
Bit rate mode : Constant
Bit rate : 1 510 Kbps
Channel(s) : 6 channels
Channel positions : Front: L C R, Side: L R, LFE
Sampling rate : 48.0 KHz
Bit depth : 24 bits
Compression mode : Lossy
Delay relative to video : 11ms
Stream size : 1.25 GiB (16%)
Title : Original
Language : English
Default : No
Forced : No

Text
ID : 4
Format : UTF-8
Codec ID : S_TEXT/UTF8
Codec ID/Info : UTF-8 Plain Text
Title : Sub
Language : English
Default : No
Forced : No

Menu
00:00:00.000 : en:00:00:00.000
00:05:07.015 : en:00:05:07.015
00:16:50.051 : en:00:16:50.051
00:20:06.205 : en:00:20:06.205
00:30:21.987 : en:00:30:21.987
00:38:23.343 : en:00:38:23.343
00:48:25.152 : en:00:48:25.152
00:55:07.221 : en:00:55:07.221
00:59:10.255 : en:00:59:10.255
01:03:16.626 : en:01:03:16.626
01:09:03.931 : en:01:09:03.931
01:15:28.858 : en:01:15:28.858
01:23:21.455 : en:01:23:21.455
01:29:44.045 : en:01:29:44.045
01:37:34.140 : en:01:37:34.140
01:50:00.344 : en:01:50:00.344
pb.wtf



Скачать Линкольн для адвоката через торрент http://piratpic.net/images/45224628285754139121.png Скачать фильм Линкольн для адвоката через торрент бесплантно в хорошем качестве Описание: Микки Холлер — блестящий и удачливый адвокат из Лос-Анджелеса, чей яркий имидж и образ жизни отлично дополняет его любимая машина ... 7.5 10 2
Info! Золотая раздача, скачанное не засчитывается.
Торрент: Зарегистрирован [2012-03-18 19:45] · скачан: 78 раз
Статус: √ проверено
Размер: 7.81 GB
Как cкачать? Как скачать Линкольн для адвоката через торрент | qTorrent

% Раздел Тема Автор DL S | L
Фильмы 2011 [ 1.46 GB ] Линкольн для адвоката / The Lincoln Lawyer [2011 HDRip-AVC] DUB [] от R.G. PiratFilms Phoenix Скачать
1 | 0
Фильмы 2011 [ 2.31 GB ] Линкольн для адвоката / Lincoln Lawyer The [2011 DVDRip-AVC лицензия] DEVI Скачать
1 | 0
Фильмы 2011 [ 2.05 GB ] Линкольн для адвоката / Lincoln Lawyer The [2011 HDRip лицензия] Lil Badun Скачать
1 | 0
Фильмы 2011 [ 2.28 GB ] Линкольн для адвоката / Lincoln Lawyer The [2011 ьный BDRip-AVC ] Vadlen Скачать
1 | 0
Фильмы 2011 [ 1.37 GB ] Линкольн для адвоката / The Lincoln Lawyer [2011 DVDRip лицензия] SD Скачать
1 | 0

28-11-2019 20:33  

Отключить всю рекламу на сайте

18-03-2012 20:03 Линкольн для адвоката Скачать торрент  

~Relizer~

Учись ставить пробелы и запятые, данный видео кодек подписывать AVC
pb.wtf



    Дорогой пользователь! Огромная просьба, поблагодарите релизера, оцените раздачу и оставьте свои комментарий, если Вы скачали Линкольн для адвоката через торрент бесплатно! Внесите свою лепту в развитие PiratBit!
    Комментировать посты могут только пользователи прошедшие не сложную регистрацию
    Показать сообщения:    

    Линкольн для адвоката через торрент
    Скачать бесплатно Линкольн для адвоката
    Линкольн для адвоката скачать торрент
    Линкольн для адвоката смотреть онлайн
    Cкачать фильм Линкольн для адвоката бесплатно
    Линкольн для адвоката скачать торрент в хорошем качестве
    Линкольн для адвоката смотреть онлайн бесплатно в хорошем качестве


    Вы не можете начинать темы
    Вы не можете отвечать на сообщения
    Вы не можете редактировать свои сообщения
    Вы не можете удалять свои сообщения
    Вы не можете голосовать в опросах
    Вы не можете прикреплять файлы к сообщениям
    Вы можете скачивать файлы