1 сезон

3 сезон

iTunes

1

Line

MVO

iTunes

13

1 сезон

RePack

30

Deluxe

pack

Лицензия

ВАЖНО

ИГРА 18+

pack

RePack

MK11

RePack

jed

RePack

fifa19

RePack

RDR2

RePack

NEED FOR SPEED™ PAYBACK

4 сезон

9 сезон

Бесстыжие 9 сезон

Все сериалы

все сериалы на PB.wtf

RePack

FAR CRY 5

Anonymous, доброй ночи, мы катастрофически не успеваем собрать деньги на оплату серверов, помогите нам пожалуйста 5,10,15р., для нас важна любая помощь . В качестве благодарности мы отключим Вам всю рекламу на сайте (укажите свой ник в строку Ваше имя)!

×
  
Magnet ссылка

Нокаут / Haywire (Стивен Содерберг / Steven Soderbergh) [2011, США, Ирландия, боевик, триллер, DVD5 (сжатый)] pb.wtf

Нокаут через торрент pb.wtf

Размер: 4.05 GB | Добавлен: 9 лет 4 мес. назад | Торрент скачан:93 раза
Скачать  

19-03-2012 17:30 Нокаут Скачать торрент  


Нокаут / Haywire
«Ей не оставили выбора»

Страна: США, Ирландия
Жанр: боевик, триллер
Год выпуска: 2011
Продолжительность: 01:28:55

Перевод: Профессиональный (дублированный) [Лицензия]
Cубтитры: нет

Режиссер: Стивен Содерберг / Steven Soderbergh

В ролях: Джина Карано, Юэн МакГрегор, Майкл Дуглас, Антонио Бандерас, Ченнинг Татум, Матьё Кассовиц, Майкл Фассбендер, Майкл Ангарано, Билл Пэкстон, Дебби Линн Росс

Описание: Мэллори Кейн — секретный спецагент. Она молода, умна и красива. Время от времени шеф международной спецслужбы Кеннет вызывает ее для выполнения заданий, не всегда санкционированных правительством. Но после провала череды операций Мэллори осознает, что она пешка в двойной игре. Теперь ей нужно использовать весь свой талант и опыт, чтобы скрыться от международного розыска, защитить свою семью и отомстить за предательство…

Бонусы: нет

Меню: русское, статичное, озвученное

Качество: DVD5 (Сжатый)
Формат: DVD-Video
Видео кодек: MPEG 2
Аудио кодек: AC-3
Видео: MPEG 2, 720x576 (4:3), 25.000 fps, 5 991 Kbps (0.578 bit/pixel)
Аудио : AC-3, 48.0 KHz, 6 ch, 448 Kbps, CBR
Title: Bob
Size: 4.05 Gb ( 4 248 640 KBytes ) - DVD-5
Enabled regions: 1, 2, 3, 4, 5, 6, 7, 8

VTS_01 :
Play Length:
Video: PAL 4:3 (720x576) VBR
Subtitles:
English
English

VTS_02 :
Play Length:
Video: PAL 16:9 (720x576) VBR, Auto Pan&Scan
Subtitles:
Not specified

VTS_03 :
Play Length:
Video: PAL 16:9 (720x576) VBR, Auto Pan&Scan
Audio:
Not specified (Dolby AC3, 2 ch)
Not specified (Dolby AC3, 2 ch)
Not specified (Dolby AC3, 2 ch)
Subtitles:
Not specified

VTS_04 :
Play Length:
Video: PAL 16:9 (720x576) VBR, Auto Pan&Scan
Audio:
Not specified (Dolby AC3, 2 ch)
Not specified (Dolby AC3, 2 ch)
Subtitles:
Not specified

VTS_05 :
Play Length: 01:28:55
Video: PAL 4:3 (720x576) VBR
Audio:
Russian (Dolby AC3, 6 ch)
Russian (DTS, 5 ch)

VTS_06 :
Play Length:
Video: PAL 16:9 (720x576) VBR, Auto Pan&Scan
Audio:
Not specified (Dolby AC3, 2 ch)
Subtitles:
Not specified

VTS_07 :
Play Length:
Video: PAL 16:9 (720x576) VBR, Auto Pan&Scan
Audio:
Not specified (Dolby AC3, 6 ch)
Subtitles:
Not specified

VTS_08 :
Play Length:
Video: PAL 16:9 (720x576) VBR, Auto Pan&Scan
Audio:
Not specified (Dolby AC3, 2 ch)
Subtitles:
Not specified

VTS_09 :
Play Length:
Video: PAL 16:9 (720x576) VBR, Auto Pan&Scan
Audio:
Not specified (Dolby AC3, 2 ch)
Subtitles:
Not specified

VTS_10 :
Play Length:
Video: PAL 16:9 (720x576) VBR, Auto Pan&Scan
Audio:
Not specified (Dolby AC3, 6 ch)
Subtitles:
Not specified

VTS_11 :
Play Length:
Video: PAL 16:9 (720x576) VBR, Auto Pan&Scan
General
Complete name : G:_VideoNokaut.2011.DVD5VIDEO_TSVTS_05_1.VOB
Format : MPEG-PS
File size : 1 024 MiB
Duration : 21mn 47s
Overall bit rate : 6 569 Kbps

Video
ID : 224 (0xE0)
Format : MPEG Video
Format version : Version 2
Format profile : Main@Main
Format settings, BVOP : Yes
Format settings, Matrix : Default
Format settings, GOP : M=3, N=12
Duration : 21mn 47s
Bit rate mode : Variable
Bit rate : 5 991 Kbps
Maximum bit rate : 8 000 Kbps
Width : 720 pixels
Height : 576 pixels
Display aspect ratio : 4:3
Frame rate : 25.000 fps
Standard : PAL
Color space : YUV
Chroma subsampling : 4:2:0
Bit depth : 8 bits
Scan type : Progressive
Compression mode : Lossy
Bits/(Pixel*Frame) : 0.578
Stream size : 934 MiB (91%)

Audio
ID : 189 (0xBD)-128 (0x80)
Format : AC-3
Format/Info : Audio Coding 3
Mode extension : CM (complete main)
Muxing mode : DVD-Video
Duration : 21mn 47s
Bit rate mode : Constant
Bit rate : 448 Kbps
Channel(s) : 6 channels
Channel positions : Front: L C R, Side: L R, LFE
Sampling rate : 48.0 KHz
Bit depth : 16 bits
Compression mode : Lossy
Stream size : 69.8 MiB (7%)

Menu
pb.wtf



Скачать Нокаут через торрент http://i35.fastpic.ru/big/2012/0319/ef/dda77054ecc0c44108e54a6e40914fef.png Скачать фильм Нокаут через торрент бесплантно в хорошем качестве Описание: Мэллори Кейн — секретный спецагент. Она молода, умна и красива. Время от времени шеф международной спецслужбы Кеннет вызывает ее ... 5 10 6
Info! Золотая раздача, скачанное не засчитывается.
Торрент: Зарегистрирован [2012-03-19 17:30] · скачан: 93 раз
Статус: √ проверено
Размер: 4.05 GB
Как cкачать? Как скачать Нокаут через торрент | UTorrent

% Раздел Тема Автор DL S | L
Фильмы [HD 720p, 1080p] (Хороший звук DUB, MVO) [ 4.21 GB ] Нокаут / Haywire [2011 BDRip 720p лицензия] Ke$h@ Скачать
1 | 0
Фильмы 2011 [ 1.46 GB ] Нокаут / Haywire [2011 DVDRip-AVC] shuller Скачать
1 | 0
Фильмы 2011 [ 2.1 GB ] Нокаут / Haywire [2011 DVDRip-AVC] DUB stalonе Скачать
1 | 0
Фильмы 2011 [ 1.37 GB ] Нокаут / Haywire [2011 DVDRip] лицензия Shmel Скачать
1 | 0
Фильмы 2011 [ 722 MB ] Нокаут / Haywire [2011 DVDRip лицензия] 700MB Sудья Скачать
1 | 0
Фильмы (DVD фильмы) [ 5.14 GB ] Нокаут / Haywire [2011 DVD9] R5 voovaz Скачать
1 | 0
Трейлеры и дополнительные материалы к фильмам [ 181 MB ] Нокаут / Haywire [2012 HD 1080p] трейлер Sудья Скачать
1 | 0

28-11-2019 20:33  

Отключить всю рекламу на сайте

    Дорогой пользователь! Огромная просьба, поблагодарите релизера, оцените раздачу и оставьте свои комментарий, если Вы скачали Нокаут через торрент бесплатно! Внесите свою лепту в развитие PiratBit!
    Комментировать посты могут только пользователи прошедшие не сложную регистрацию
    Показать сообщения:    

    Нокаут через торрент
    Скачать бесплатно Нокаут
    Нокаут скачать торрент
    Нокаут смотреть онлайн
    Cкачать фильм Нокаут бесплатно
    Нокаут скачать торрент в хорошем качестве
    Нокаут смотреть онлайн бесплатно в хорошем качестве


    Вы не можете начинать темы
    Вы не можете отвечать на сообщения
    Вы не можете редактировать свои сообщения
    Вы не можете удалять свои сообщения
    Вы не можете голосовать в опросах
    Вы не можете прикреплять файлы к сообщениям
    Вы можете скачивать файлы