1 сезон

3 сезон

iTunes

1

iTunes

MVO

iTunes

13

1 сезон

RePack

30

Deluxe

pack

Лицензия

ВАЖНО

ИГРА 18+

pack

RePack

MK11

RePack

jed

RePack

fifa19

RePack

RDR2

RePack

NEED FOR SPEED™ PAYBACK

4 сезон

9 сезон

Бесстыжие 9 сезон

Все сериалы

все сериалы на PB.wtf

RePack

FAR CRY 5

Anonymous, доброе утро, мы катастрофически не успеваем собрать деньги на оплату серверов, помогите нам пожалуйста 5,10,15р., для нас важна любая помощь . В качестве благодарности мы отключим Вам всю рекламу на сайте (укажите свой ник в строку Ваше имя)!

×
  
Magnet ссылка

Нокаут / Haywire (Стивен Содерберг / Steven Soderbergh) [2011, боевик, триллер, DVD9] R5 pb.wtf

Нокаут через торрент pb.wtf

Размер: 5.14 GB | Добавлен: 9 лет 4 мес. назад | Торрент скачан:65 раз
Скачать  

19-03-2012 18:57 Нокаут Скачать торрент  

[font="Georgia"]
Нокаут / Haywire
«Ей не оставили выбора»
Страна: США, Ирландия
Студия: Irish Film Board, Relativity Media
Жанр: боевик, триллер
Год выпуска: 2011
Мировая премьера: 7 ноября 2011
Российская премьера: 19 января 2012
Дата выхода DVD: 22 марта 2012
Дата выхода Blu-Ray: 29 марта 2012
Продолжительность: 01:28:55
Перевод: Профессиональный (дублированный) [Лицензия]
Cубтитры: нет
Режиссер: Стивен Содерберг / Steven Soderbergh
В ролях: Джина Карано, Юэн МакГрегор, Майкл Дуглас, Антонио Бандерас, Ченнинг Татум, Матьё Кассовиц, Майкл Фассбендер, Майкл Ангарано, Билл Пэкстон, Дебби Линн Росс
Описание: Мэллори Кейн — секретный спецагент. Она молода, умна и красива. Время от времени шеф международной спецслужбы Кеннет вызывает ее для выполнения заданий, не всегда санкционированных правительством. Но после провала череды операций Мэллори осознает, что она пешка в двойной игре. Теперь ей нужно использовать весь свой талант и опыт, чтобы скрыться от международного розыска, защитить свою семью и отомстить за предательство…
Бонусы: Смотрите на DVD, создатели и исполнители, фотогалерея

Качество: DVD9 R5
Формат: DVD-Video
Видео кодек: MPEG2
Аудио кодек: AC3 + DTS
Видео: PAL 4:3 (720x576(0.578)) MPEG Video, 25,000 кадр/сек, 5996 Кбит/сек
Аудио #1: Russian (Dolby AC3, 6 ch) 448 Кбит/сек, 48,0 КГц
Аудио #2: Russian (DTS, 6 ch) 768 Кбит/сек, 48,0 КГц



Title: Рабочий
Size: 5.14 Gb ( 5 387 234 KBytes ) - DVD-9
Enabled regions: 1, 2, 3, 4, 5, 6, 7, 8

VTS_01 :
Play Length: 00:00:05
Video: PAL 4:3 (720x576) VBR
Subtitles:
English
English

VTS_02 :
Play Length: 00:00:04
Video: PAL 16:9 (720x576) VBR, Auto Letterboxed
Subtitles:
Not specified

VTS_03 :
Play Length: 00:02:15
Video: PAL 16:9 (720x576) VBR, Auto Letterboxed
Audio:
Not specified (Dolby AC3, 2 ch)
Not specified (Dolby AC3, 2 ch)
Not specified (Dolby AC3, 2 ch)
Subtitles:
Not specified

VTS_04 :
Play Length: 00:00:16
Video: PAL 16:9 (720x576) VBR, Auto Letterboxed
Audio:
Not specified (Dolby AC3, 2 ch)
Not specified (Dolby AC3, 2 ch)
Subtitles:
Not specified

VTS_05 :
Play Length: 01:28:55
Video: PAL 4:3 (720x576) VBR
Audio:
Russian (Dolby AC3, 6 ch)
Russian (DTS, 5 ch)

VTS_06 :
Play Length: 00:02:00
Video: PAL 16:9 (720x576) VBR, Auto Letterboxed
Audio:
Not specified (Dolby AC3, 2 ch)
Subtitles:
Not specified

VTS_07 :
Play Length: 00:01:52
Video: PAL 16:9 (720x576) VBR, Auto Letterboxed
Audio:
Not specified (Dolby AC3, 6 ch)
Subtitles:
Not specified

VTS_08 :
Play Length: 00:01:34
Video: PAL 16:9 (720x576) VBR, Auto Letterboxed
Audio:
Not specified (Dolby AC3, 2 ch)
Subtitles:
Not specified

VTS_09 :
Play Length: 00:02:24
Video: PAL 16:9 (720x576) VBR, Auto Letterboxed
Audio:
Not specified (Dolby AC3, 2 ch)
Subtitles:
Not specified

VTS_10 :
Play Length: 00:02:25
Video: PAL 16:9 (720x576) VBR, Auto Letterboxed
Audio:
Not specified (Dolby AC3, 6 ch)
Subtitles:
Not specified

VTS_11 :
Play Length: 00:01:35
Video: PAL 16:9 (720x576) VBR, Auto Letterboxed
Общее
Полное имя : G:\Новинки 2012\Nokaut.2011.DVD9\VIDEO_TS\VTS_05_1.VOB
Формат : MPEG-PS
Размер файла : 1024 Мбайт
Продолжительность : 19 м.
Режим общего битрейта : Переменный
Общий поток : 7345 Кбит/сек

Видео
Идентификатор : 224 (0xE0)
Формат : MPEG Video
Версия формата : Version 2
Профиль формата : Main@Main
Параметр BVOP формата : Да
Параметр матрицы формата : По умолчанию
Параметр GOP формата : M=3, N=12
Продолжительность : 19 м.
Вид битрейта : Переменный
Битрейт : 5996 Кбит/сек
Максимальный битрейт : 8000 Кбит/сек
Ширина : 720 пикселей
Высота : 576 пикселей
Соотношение сторон : 4:3
Частота кадров : 25,000 кадров/сек
Стандарт вещания : PAL
Цветовое пространство : YUV
Субдискретизация насыщенности : 4:2:0
Битовая глубина : 8 бит
Тип развёртки : Прогрессивная
Метод сжатия : С потерями
Бит/(Пиксели*Кадры) : 0.578
Размер потока : 836 Мбайт (82%)

Аудио #1
Идентификатор : 189 (0xBD)-128 (0x80)
Формат : AC-3
Формат/Информация : Audio Coding 3
Расширение режима : CM (complete main)
Режим смешивания : DVD-Video
Продолжительность : 19 м.
Вид битрейта : Постоянный
Битрейт : 448 Кбит/сек
Каналы : 6 каналов
Расположение каналов : Front: L C R, Side: L R, LFE
Частота : 48,0 КГц
Битовая глубина : 16 бит
Метод сжатия : С потерями
Размер потока : 62,4 Мбайт (6%)

Аудио #2
Идентификатор : 189 (0xBD)-137 (0x89)
Формат : DTS
Формат/Информация : Digital Theater Systems
Режим смешивания : DVD-Video
Продолжительность : 19 м.
Вид битрейта : Постоянный
Битрейт : 755 Кбит/сек
Каналы : 6 каналов
Расположение каналов : Front: L C R, Side: L R, LFE
Частота : 48,0 КГц
Битовая глубина : 16 бит
Метод сжатия : С потерями
Размер потока : 105 Мбайт (10%)










pb.wtf



Скачать Нокаут через торрент http://i1.imageban.ru/out/2012/03/19/d3069baa6009319233e6f3ac283c7975.jpg Скачать фильм Нокаут через торрент бесплантно в хорошем качестве Описание: Мэллори Кейн — секретный спецагент. Она молода, умна и красива. Время от времени шеф международной спецслужбы Кеннет вызывает ее ... 5 10 4
Info! Золотая раздача, скачанное не засчитывается.
Торрент: Зарегистрирован [2012-03-19 18:57] · скачан: 65 раз
Статус: √ проверено
Размер: 5.14 GB
Как cкачать? Как скачать Нокаут через торрент | UTorrent

28-11-2019 20:33  

Отключить всю рекламу на сайте

19-03-2012 19:15 Нокаут Скачать торрент  

ГРУСТНАЯ КВАДРАТУРА КАРТИНОЧНАЯ-НО КАЧНУ!!!!!!!!!!!!!!!! pb.wtf



    Дорогой пользователь! Огромная просьба, поблагодарите релизера, оцените раздачу и оставьте свои комментарий, если Вы скачали Нокаут через торрент бесплатно! Внесите свою лепту в развитие PiratBit!
    Комментировать посты могут только пользователи прошедшие не сложную регистрацию
    Показать сообщения:    

    Нокаут через торрент
    Скачать бесплатно Нокаут
    Нокаут скачать торрент
    Нокаут смотреть онлайн
    Cкачать фильм Нокаут бесплатно
    Нокаут скачать торрент в хорошем качестве
    Нокаут смотреть онлайн бесплатно в хорошем качестве


    Вы не можете начинать темы
    Вы не можете отвечать на сообщения
    Вы не можете редактировать свои сообщения
    Вы не можете удалять свои сообщения
    Вы не можете голосовать в опросах
    Вы не можете прикреплять файлы к сообщениям
    Вы можете скачивать файлы