2 сезон

iTunes

MVO

1

2 сезон

iTunes

iTunes

1 сезон

RePack

30

Новинка

ВАЖНО

ИГРА 18+

pack

RePack

MK11
pack

Легкие деньги

RePack

jed

RePack

fifa19

RePack

RDR2

RePack

NEED FOR SPEED™ PAYBACK

4 сезон

9 сезон

Бесстыжие 9 сезон

Все сериалы

все сериалы на PB.wtf

RePack

FAR CRY 5

Anonymous, добрый день, мы не успеваем собрать деньги на оплату серверов за декабрь и январь, помогите нам пожалуйста в это трудное время. В качестве благодарности мы отключим Вам всю рекламу на сайте (укажите свой ник в строку Ваше имя)!

×
  
Magnet ссылка

[Lady-Sonia] Red (Dildo Strech In Close Up) [20.03.2012 г., Stockings, Nylons, Bra, Panties, Dildo, SATRip] pb.wtf

через торрент pb.wtf

Размер: 337 MB | Добавлен: 8 лет 10 мес. назад | Торрент скачан:51 раз
Скачать  

20-03-2012 08:13 Скачать торрент  

[font="sans-serif"][Lady-Sonia.com]
Red - Dildo Strech In Close Up
[20.03.2012]

[font="sans-serif"]Имя актрисы: Red
Название ролика: Dildo Strech In Close Up
Подсайт и сайт: Lady-Sonia.com

Год производства: 2012 г.
Жанр: Stockings, Nylons, Bra, Panties, Dildo
Продолжительность: 00:22:36

Качество: SATRip
Формат видео: MP4
Видео кодек: AVC
Аудио кодек: AAC
Видео: 1 985 Kbps, 25.000 fps, 720x404
Аудио: 93.0 Kbps, 2 channels, 48.0 KHz

Описание:
My very special friend and absolutely STUNNING MILF Red drops by to catch up on news
and while she is here wee shot this impromptu video to show off her new red bra and panties…
If you are excited by older married ladies who LOVE to show off then this video is really
VERY special as Red undresses for the camera and then goes to work on one of
my HUGE cock shaped dildos and shows just how much she LOVES to feel
her tight pussy entrance stretch while you watch EVERYTHING in FULL close-up!
Do you like to hear VERY responsive MILF’s cum hard and load?
Then watch and enjoy every single second of this raw footage!
General
Complete name : Red - Dildo Strech In Close Up.mp4
Format : MPEG-4
Format profile : Base Media / Version 2
Codec ID : mp42
File size : 337 MiB
Duration : 22mn 36s
Overall bit rate mode : Variable
Overall bit rate : 2 082 Kbps
Encoded date : UTC 2012-02-07 02:38:35
Tagged date : UTC 2012-02-07 02:38:35
Writing library : AVS

Video
ID : 1
Format : AVC
Format/Info : Advanced Video Codec
Format profile : Baseline@L1.3
Format settings, CABAC : No
Format settings, ReFrames : 1 frame
Codec ID : avc1
Codec ID/Info : Advanced Video Coding
Duration : 22mn 36s
Bit rate : 1 985 Kbps
Width : 720 pixels
Height : 404 pixels
Display aspect ratio : 16:9
Frame rate mode : Constant
Frame rate : 25.000 fps
Color space : YUV
Chroma subsampling : 4:2:0
Bit depth : 8 bits
Scan type : Progressive
Bits/(Pixel*Frame) : 0.273
Stream size : 321 MiB (95%)
Language : English
Encoded date : UTC 2012-02-07 02:38:35
Tagged date : UTC 2012-02-07 02:38:35

Audio
ID : 2
Format : AAC
Format/Info : Advanced Audio Codec
Format profile : LC
Codec ID : 40
Duration : 22mn 36s
Bit rate mode : Variable
Bit rate : 93.0 Kbps
Maximum bit rate : 96.0 Kbps
Channel(s) : 2 channels
Channel positions : Front: L R
Sampling rate : 48.0 KHz
Compression mode : Lossy
Stream size : 15.0 MiB (4%)
Language : English
Encoded date : UTC 2012-02-07 02:38:35
Tagged date : UTC 2012-02-07 02:38:35
pb.wtf



pack Скачать через торрент http://i35.fastpic.ru/big/2012/0320/88/a7de8b231a644f36c66ce8ccf0210388.jpg Скачать фильм [Lady-Sonia] Red через торрент бесплантно в хорошем качестве Описание:My very special friend and absolutely STUNNING MILF Red drops by to catch up on newsand while she is here wee shot this impromptu ... 3 10 3
Info! Золотая раздача, скачанное не засчитывается.
Торрент: Зарегистрирован [2012-03-20 08:13] · скачан: 51 раз
Статус: √ проверено
Размер: 337 MB
Как cкачать? Как скачать через торрент | UTorrent



Последний раз редактировалось: rixt (2012-03-20 11:04), всего редактировалось 2 раз(а)

28-11-2019 20:33  

Отключить всю рекламу на сайте

20-03-2012 10:43 Скачать торрент  

В название темы укажите [Год,Жанр,Качество]
Добавьте характеристику по видео и аудио.

Код:

Качество: ???
Формат:
Видео кодек:
Аудио кодек:
Видео:
Аудио:


-->Как получить информацию по видео файлу<--

Исправите пишите мне в ЛСpb.wtf



pack
    Дорогой пользователь! Огромная просьба, поблагодарите релизера, оцените раздачу и оставьте свои комментарий, если Вы скачали через торрент бесплатно! Внесите свою лепту в развитие PiratBit!
    Комментировать посты могут только пользователи прошедшие не сложную регистрацию
    Показать сообщения:    

    через торрент
    Скачать бесплатно
    скачать торрент
    смотреть онлайн
    Cкачать фильм бесплатно
    скачать торрент в хорошем качестве
    смотреть онлайн бесплатно в хорошем качестве


    Вы не можете начинать темы
    Вы не можете отвечать на сообщения
    Вы не можете редактировать свои сообщения
    Вы не можете удалять свои сообщения
    Вы не можете голосовать в опросах
    Вы не можете прикреплять файлы к сообщениям
    Вы можете скачивать файлы