Ссылка на приватное зеркало нашего сайта всего за 1$. Внимание количество ограничено!!!

2 сезон

iTunes

1 сезон

1

iTunes

iTunes

iTunes

1 сезон

RePack

30

ИГРА 18+

pack

ВАЖНО

!!Акция!!

Alien_RageХит недели

RePack

MK11
pack

Забери бонус

RePack

jed

!!Акция!!

Alien_Rage

RePack

fifa19

RePack

Assassins Creed: Odyssey

RePack

NEED FOR SPEED™ PAYBACK

4 сезон

9 сезон

Бесстыжие 9 сезон

Все сериалы

все сериалы на PB.wtf

RePack

FAR CRY 5
  

Олдбой / Oldeuboi (Пак Чхан-ук) [2003, триллер, драма, детектив, BDRip] [720p] pb.wtf

Олдбой через торрент pb.wtf

Размер: 4 GB | Добавлен: 8 лет 7 мес. назад | Торрент скачан:217 раз
Скачать  

21-03-2012 10:59 Олдбой Скачать торрент  

[font="Courier New"]Олдбой / Oldeuboi
[font="Courier New"]Год выпуска: [font="Courier New"] 2003
[font="Courier New"]Страна: [font="Courier New"] Корея Южная
[font="Courier New"]Жанр: [font="Courier New"] триллер, драма, детектив
[font="Courier New"]Продолжительность: [font="Courier New"] 01:59:58
[font="Courier New"]Перевод: [font="Courier New"] Профессиональный (полное дублирование)
[font="Courier New"]Субтитры: [font="Courier New"] Русские, Английские (полные, отключаемые)

[font="Courier New"]Режиссёр: [font="Courier New"] Пак Чхан-ук
[font="Courier New"]В ролях: [font="Courier New"] Мин-Сик Чои, Цзи Тэ Ю, Кан Хе Чжон, Да-Хэн Джи, Дал-су Ох, Бйонг-Ок Ким, Сенг-Шин Ли, Джин-Сео Юн, Дае-Ён Ли, Гван-рок О

[font="Courier New"]Описание: [font="Courier New"] 1988 год. Обычного человека по имени О Дэ-су, заботливого отца и любящего мужа, похищают прямо по дороге домой. Он приходит в себя в странном помещении, представляющем собой импровизированную тюрьму. Дэ-су мучается вопросом «за что», но не находит ответа. Спустя год в новостях он видит репортаж о гибели своей жены. Самое страшное, что убийцей считают его. После пятнадцати лет заточения бедняга, наконец, выходит на свободу…

[font="Courier New"]Качество: [font="Courier New"]BDRip [720p]
[font="Courier New"]Формат: [font="Courier New"] MKV
[font="Courier New"]Видео кодек: [font="Courier New"] х264
[font="Courier New"]Аудио кодек: [font="Courier New"] AC3
[font="Courier New"]Видео: [font="Courier New"] 1280x552 (2.35:1), 23,976 fps, MPEG4 AVC (х264), High@L4.1 ~4000 kbps avg, 0.236 bit/pixel
[font="Courier New"]Аудио: [font="Courier New"]
Аудио#1: Русский: 48 kHz, AC-3, 6 ch, ~384.00 kbps avg [Профессиональный (полное дублирование, Cinema Prestige)]
Аудио#2: Русский: 48 kHz, AC-3, 6 ch, ~384.00 kbps avg [Профессиональный (многоголосый, закадровый, Tycoon)]
General
Unique ID : 186721191783889147473062928318857712683 (0x8C793185FE4CC885967E45958A77942B)
Complete name : D:\oldeuboi_1.mkv
Format : Matroska
Format version : Version 2
File size : 4.00 GiB
Duration : 1h 59mn
Overall bit rate : 4 767 Kbps
Encoded date : UTC 2012-03-19 11:12:25
Writing application : mkvmerge v4.6.0 ('Still Crazy After All These Years') сборка от Mar 10 2011 02:50:32
Writing library : XviD4PSP 6.0 / 53.31.100
Language : rus

Video
ID : 1
Format : AVC
Format/Info : Advanced Video Codec
Format profile : High@L4.1
Format settings, CABAC : Yes
Format settings, ReFrames : 3 frames
Muxing mode : Header stripping
Codec ID : V_MPEG4/ISO/AVC
Duration : 1h 59mn
Bit rate : 4 000 Kbps
Width : 1 280 pixels
Height : 552 pixels
Display aspect ratio : 2.35:1
Frame rate mode : Variable
Frame rate : 23.976 fps
Color space : YUV
Chroma subsampling : 4:2:0
Bit depth : 8 bits
Scan type : Progressive
Bits/(Pixel*Frame) : 0.236
Stream size : 3.27 GiB (82%)
Writing library : x264 core 116 r2019M 9cc407d
Encoding settings : cabac=1 / ref=3 / deblock=1:-1:-1 / analyse=0x3:0x133 / me=hex / subme=7 / psy=1 / psy_rd=1.00:0.15 / mixed_ref=1 / me_range=16 / chroma_me=1 / trellis=1 / 8x8dct=1 / cqm=0 / deadzone=21,11 / fast_pskip=1 / chroma_qp_offset=-3 / threads=8 / sliced_threads=0 / nr=0 / decimate=1 / interlaced=0 / bluray_compat=0 / constrained_intra=0 / bframes=3 / b_pyramid=1 / b_adapt=2 / b_bias=0 / direct=3 / weightb=1 / open_gop=0 / weightp=2 / keyint=230 / keyint_min=23 / scenecut=40 / intra_refresh=0 / rc_lookahead=40 / rc=abr / mbtree=1 / bitrate=4000 / ratetol=1.0 / qcomp=0.60 / qpmin=10 / qpmax=51 / qpstep=4 / ip_ratio=1.40 / aq=1:1.00
Language : Korean

Audio #1
ID : 2
Format : AC-3
Format/Info : Audio Coding 3
Mode extension : CM (complete main)
Muxing mode : Header stripping
Codec ID : A_AC3
Duration : 1h 59mn
Bit rate mode : Constant
Bit rate : 384 Kbps
Channel(s) : 6 channels
Channel positions : Front: L C R, Side: L R, LFE
Sampling rate : 48.0 KHz
Bit depth : 16 bits
Compression mode : Lossy
Delay relative to video : 146ms
Stream size : 330 MiB (8%)
Title : DUB
Language : Russian

Audio #2
ID : 3
Format : AC-3
Format/Info : Audio Coding 3
Mode extension : CM (complete main)
Muxing mode : Header stripping
Codec ID : A_AC3
Duration : 1h 59mn
Bit rate mode : Constant
Bit rate : 384 Kbps
Channel(s) : 6 channels
Channel positions : Front: L C R, Side: L R, LFE
Sampling rate : 48.0 KHz
Bit depth : 16 bits
Compression mode : Lossy
Stream size : 330 MiB (8%)
Title : MVO
Language : Russian

Text #1
ID : 4
Format : UTF-8
Codec ID : S_TEXT/UTF8
Codec ID/Info : UTF-8 Plain Text
Title : RUS.PREMIER
Language : Russian

Text #2
ID : 5
Format : UTF-8
Codec ID : S_TEXT/UTF8
Codec ID/Info : UTF-8 Plain Text
Title : RUS.TYCOON
Language : Russian

Text #3
ID : 6
Format : UTF-8
Codec ID : S_TEXT/UTF8
Codec ID/Info : UTF-8 Plain Text
Title : ENG.TYCOON
Language : English

Text #4
ID : 7
Format : UTF-8
Codec ID : S_TEXT/UTF8
Codec ID/Info : UTF-8 Plain Text
Title : RUS (Комментарии режиссёра)
Language : Russian

Text #5
ID : 8
Format : UTF-8
Codec ID : S_TEXT/UTF8
Codec ID/Info : UTF-8 Plain Text
Title : RUS (Комментарии режиссёра и главного оператора)
Language : Russian

Text #6
ID : 9
Format : UTF-8
Codec ID : S_TEXT/UTF8
Codec ID/Info : UTF-8 Plain Text
Title : RUS (Комментарии режиссёра и актёров)
Language : Russian
pb.wtf



Скачать Олдбой через торрент http://i32.fastpic.ru/big/2012/0321/d7/2cb2b8d78e8376a7529b54b8a95833d7.jpg Скачать фильм Олдбой через торрент бесплантно в хорошем качестве Описание: [font="Courier New"] 1988 год. Обычного человека по имени О Дэ-су, заботливого отца и любящего мужа, похищают прямо по дороге ... 9.8 10 8
Info! Золотая раздача, скачанное не засчитывается.
Торрент: Зарегистрирован [2012-03-21 10:59] · скачан: 217 раз
Статус: √ проверено
Размер: 4 GB
Как cкачать? Как скачать Олдбой через торрент | qTorrent

% Раздел Тема Автор DL S | L
Азиатские фильмы [ 21.31 GB ] Олдбой / Oldeuboi [2003 BDRip 1080p] DUB+DVO+MVO+VO+2xAVO bober100 Скачать
2 | 0
Фильмы с авторской озвучкой [ 2.2 GB ] Олдбой / Oldeuboi / Oldboy [2003 BDRip-AVC] [REMASTERED] [AVO] killermax2013 Скачать
1 | 0
Фильмы [HD 720p, 1080p] (Хороший звук DUB, MVO) [ 4.97 GB ] Олдбой / Oldboy [2013 BDRip-HEVC 1080p] DUB [] bober100 Скачать
1 | 0
Фильмы 2013 [DVDrip, WEB-DLRip, HDrip] [ 1.46 GB ] Олдбой / Oldboy [2013 HDRip ] MihailHD Скачать
1 | 0
Фильмы [HD 720p, 1080p] (Хороший звук DUB, MVO) [ 4.83 GB ] Олдбой / Oldboy [2013 BDRip 720p] MrKuzj Скачать
1 | 0
Фильмы [HD 720p, 1080p] (Хороший звук DUB, MVO) [ 9 GB ] Олдбой / Oldboy [ 2013 BDRip 1080p ] DUB Ворон Скачать
1 | 0
Фильмы (DVD фильмы) [ 7.39 GB ] Олдбой / Oldboy [2013 DVD9] R5 voovaz Скачать
1 | 0


Последний раз редактировалось: stalonе (2012-03-21 11:39), всего редактировалось 1 раз

28-11-2019 20:33  

Отключить всю рекламу на сайте

21-03-2012 11:34 Олдбой Скачать торрент  

stalonе
В HD разделе обязательно добавлять MediaInfo
P.S. Статус "недооформлено" раздаче не присваиваю (не известно, когда вернусь) чтоб у тебя была возможность создавать релизыpb.wtf



21-03-2012 11:39 Олдбой Скачать торрент  

shuller Добавил)pb.wtf



21-03-2012 12:31 Олдбой Скачать торрент  

отличный фильмpb.wtf



22-03-2012 11:03 Олдбой Скачать торрент  

Фильм просто супер. Спасибо релизеру! Один из немногих, который мне действительно понравился... Беру, поставлю на полочку вместе с фильмами "Правило №1", "Я видел дьявола".pb.wtf



    Дорогой пользователь! Огромная просьба, поблагодарите релизера, оцените раздачу и оставьте свои комментарий, если Вы скачали Олдбой через торрент бесплатно! Внесите свою лепту в развитие PiratBit!
    Комментировать посты могут только пользователи прошедшие не сложную регистрацию
    Показать сообщения:    

    Олдбой через торрент
    Скачать бесплатно Олдбой
    Олдбой скачать торрент
    Олдбой смотреть онлайн
    Cкачать фильм Олдбой бесплатно
    Олдбой скачать торрент в хорошем качестве
    Олдбой смотреть онлайн бесплатно в хорошем качестве


    Вы не можете начинать темы
    Вы не можете отвечать на сообщения
    Вы не можете редактировать свои сообщения
    Вы не можете удалять свои сообщения
    Вы не можете голосовать в опросах
    Вы не можете прикреплять файлы к сообщениям
    Вы можете скачивать файлы