1 сезон

3 сезон

iTunes

1

Line

MVO

iTunes

13

1 сезон

RePack

30

Deluxe

pack

Лицензия

ВАЖНО

ИГРА 18+

pack

RePack

MK11

RePack

jed

RePack

fifa19

RePack

RDR2

RePack

NEED FOR SPEED™ PAYBACK

4 сезон

9 сезон

Бесстыжие 9 сезон

Все сериалы

все сериалы на PB.wtf

RePack

FAR CRY 5

Anonymous, добрый вечер, мы катастрофически не успеваем собрать деньги на оплату серверов, помогите нам пожалуйста 5,10,15р., для нас важна любая помощь . В качестве благодарности мы отключим Вам всю рекламу на сайте (укажите свой ник в строку Ваше имя)!

×
  
Magnet ссылка

Игра на выживание / Gone (Эйтор Далия) [2012 г., триллер, драма, DVD5, лицензия] pb.wtf

Игра на выживание через торрент pb.wtf

Размер: 4.26 GB | Добавлен: 9 лет 4 мес. назад | Торрент скачан:92 раза
Скачать  

21-03-2012 16:42 Игра на выживание Скачать торрент  



Игра на выживание / Gone

Год выпуска: 2012
Страна: США
Жанр: триллер, драма
Продолжительность: 01:30:56
Перевод: Профессиональный (полное дублирование) [Лицензия]

Режиссер: Эйтор Далия
Продюссер: Дэн Абрамс, Сидни Киммел, Гари Лучези
Сценарий: Эллисон Барнетт

Сборы в США: $11 381 750

детям до 13 лет просмотр не желателен
Мировой рейтинг IMDB 5.40 (1 213)


В ролях: Аманда Сайфред, Дэниел Сунджата, Дженнифер Карпентер, Себастиан Стэн, Уэс Бентли, Ник Сирси, Сократис Отто, Эмили Уикершем, Джоэль Мур, Кэтрин Менниг, Василиса Воронина, Даниил Эльдаров, Радик Мухаметзянов, Дмитрий Курта

Описание: Джилл Пэрриш однажды приходит домой и не находит сестру. Джилл уверена, что серийный убийца, который похищал ее пару лет назад, вернулся, чтобы довести начатое до логического завершения. А начнет он с ее сестры. Полиция не воспринимает ее всерьез, говоря, что девушка объявится, когда нагуляется. Единственный выход — вступить в схватку с маньяком и разобраться с этим раз и навсегда.
Похожие раздачи: Игра на выживание

Качество: DVD5
Формат: DVD Video
Видео кодек: MPEG2
Аудио кодек: AC3
Видео: 720 x 576 (1.778) at 25.000 fps MPEG Video at 5993 Кбит/сек
Аудио: AC-3 at 448 Кбит/сек 6 каналов, 48,0 КГц
Общее
Полное имя : D:\Фильмы\Igra.na.vujivanie.2012.D.DVD-5\VIDEO_TS\VTS_06_3.VOB
Формат : MPEG-PS
Размер файла : 1024 Мбайт
Продолжительность : 21 м.
Режим общего битрейта : Переменный
Общий поток : 6572 Кбит/сек

Видео
Идентификатор : 224 (0xE0)
Формат : MPEG Video
Версия формата : Version 2
Профиль формата : Main@Main
Параметр BVOP формата : Да
Параметр матрицы формата : По умолчанию
Параметр GOP формата : M=3, N=12
Продолжительность : 21 м.
Вид битрейта : Переменный
Битрейт : 5993 Кбит/сек
Максимальный битрейт : 8000 Кбит/сек
Ширина : 720 пикселей
Высота : 576 пикселей
Соотношение сторон : 16:9
Частота кадров : 25,000 кадров/сек
Стандарт вещания : PAL
Цветовое пространство : YUV
Субдискретизация насыщенности : 4:2:0
Битовая глубина : 8 бит
Тип развёртки : Прогрессивная
Метод сжатия : С потерями
Бит/(Пиксели*Кадры) : 0.578
Размер потока : 934 Мбайт (91%)

Аудио
Идентификатор : 189 (0xBD)-128 (0x80)
Формат : AC-3
Формат/Информация : Audio Coding 3
Расширение режима : CM (complete main)
Режим смешивания : DVD-Video
Продолжительность : 21 м.
Вид битрейта : Постоянный
Битрейт : 448 Кбит/сек
Каналы : 6 каналов
Расположение каналов : Front: L C R, Side: L R, LFE
Частота : 48,0 КГц
Битовая глубина : 16 бит
Метод сжатия : С потерями
Задержка видео : -704 мс.
Размер потока : 69,8 Мбайт (7%)

Меню
Title: Igra.na.vujivanie.2012.DVD-5
Size: 4.26 Gb ( 4 471 708,00 KBytes ) - DVD-5
Enabled regions: 1, 2, 3, 4, 5, 6, 7, 8

VTS_01 :
Play Length: 00:00:05
Video: PAL 4:3 (720x576) VBR

VTS_02 :
Play Length: 00:00:16
Video: PAL 16:9 (720x576) VBR, Auto Letterboxed
Audio:
Not specified (Dolby AC3, 2 ch)

VTS_03 :
Play Length: 00:00:07
Video: PAL 16:9 (720x576) VBR, Auto Letterboxed
Audio:
Not specified (Dolby AC3, 2 ch)

VTS_04 :
Play Length: 00:02:02
Video: PAL 16:9 (720x576) VBR, Auto Letterboxed
Audio:
Not specified (Dolby AC3, 2 ch)

VTS_05 :
Play Length: 00:00:16
Video: PAL 16:9 (720x576) VBR, Auto Letterboxed
Audio:
Not specified (Dolby AC3, 2 ch)

VTS_06 :
Play Length: 01:30:56
Video: PAL 16:9 (720x576) VBR, Auto Letterboxed
Audio:
Russian (Dolby AC3, 6 ch)

* Menus Information *

VIDEO_TS Menu
Video:
PAL 16:9 (720x576) VBR
Auto Pan&Scan, Auto Letterboxed
English Language Unit :
Title Menu

VTS_01 Menu
Video:
PAL 16:9 (720x576) VBR
Auto Letterboxed
Audio:
Not specified (Dolby AC3, 2 ch)
English Language Unit :
Root Menu

VTS_02 Menu
Video:
PAL 4:3 (720x576) VBR
English Language Unit :
Root Menu

VTS_03 Menu
Video:
PAL 4:3 (720x576) VBR
English Language Unit :
Root Menu

VTS_04 Menu
Video:
PAL 4:3 (720x576) VBR
English Language Unit :
Root Menu

VTS_05 Menu
Video:
PAL 4:3 (720x576) VBR
English Language Unit :
Root Menu

VTS_06 Menu
Video:
PAL 4:3 (720x576) VBR
English Language Unit :
Root Menu
pb.wtf



Скачать Игра на выживание через торрент https://pic1.kartinco.top/images/2012/7a9xr5i7em.png Скачать фильм Игра на выживание через торрент бесплантно в хорошем качестве Описание: Джилл Пэрриш однажды приходит домой и не находит сестру. Джилл уверена, что серийный убийца, который похищал ее пару лет назад, ... 4.6 10 9
Info! Золотая раздача, скачанное не засчитывается.
Торрент: Зарегистрирован [2012-03-21 16:42] · скачан: 92 раз
Статус: √ проверено
Размер: 4.26 GB
Как cкачать? Как скачать Игра на выживание через торрент | UTorrent

% Раздел Тема Автор DL S | L
Фильмы [HD 720p, 1080p] (Хороший звук DUB, MVO) [ 10.48 GB ] Игра на выживание / Gone [2012 BDRip 1080p] Blu-Ray RUS diletant Скачать
1 | 0
Аниме [DVDrip, WEB-DLRip, HDrip] [ 4.94 GB ] Игра на выживание / No Game No Life [2014 HDTVRip 720p DVO ] RodDog Скачать
1 | 0
Фильмы (Blu-ray, BD-Remux, HDDVD) [ 19.2 GB ] Игра на выживание / Gone [2012 BDRemux DUB + Оригинал] AlexKa Скачать
1 | 0
Фильмы [HD 720p, 1080p] (Хороший звук DUB, MVO) [ 4.5 GB ] Игра на выживание / Gone [2012 BDRip DUB ] DEVI Скачать
1 | 0
Фильмы (Blu-ray, BD-Remux, HDDVD) [ 12.2 GB ] Игра на выживание / Gone [2012 Blu-Ray DUB ] Зайчина Скачать
1 | 1
Фильмы 2012 [ 1.46 GB ] Игра на выживание / Gone [2012 BDRip-AVC / лицензия] [US-Transfer] Mr. Freeman Скачать
1 | 0
Фильмы [HD 720p, 1080p] (Хороший звук DUB, MVO) [ 7.79 GB ] Игра на выживание / Gone [2012 BDRip DUB ] DEVI Скачать
1 | 0


Последний раз редактировалось: Sудья (2012-03-21 17:27), всего редактировалось 1 раз

28-11-2019 20:33  

Отключить всю рекламу на сайте

21-03-2012 16:54 Игра на выживание Скачать торрент  

Как фильм ? Стоит смотреть или нет ? pb.wtf



21-03-2012 16:56 Игра на выживание Скачать торрент  

Sудья
http://pb.wtf/viewtopic.php?t=74428
Про медиаинфо не забываемpb.wtf



21-03-2012 19:26 Игра на выживание Скачать торрент  

фильм на троечку!!pb.wtf



    Дорогой пользователь! Огромная просьба, поблагодарите релизера, оцените раздачу и оставьте свои комментарий, если Вы скачали Игра на выживание через торрент бесплатно! Внесите свою лепту в развитие PiratBit!
    Комментировать посты могут только пользователи прошедшие не сложную регистрацию
    Показать сообщения:    

    Игра на выживание через торрент
    Скачать бесплатно Игра на выживание
    Игра на выживание скачать торрент
    Игра на выживание смотреть онлайн
    Cкачать фильм Игра на выживание бесплатно
    Игра на выживание скачать торрент в хорошем качестве
    Игра на выживание смотреть онлайн бесплатно в хорошем качестве


    Вы не можете начинать темы
    Вы не можете отвечать на сообщения
    Вы не можете редактировать свои сообщения
    Вы не можете удалять свои сообщения
    Вы не можете голосовать в опросах
    Вы не можете прикреплять файлы к сообщениям
    Вы можете скачивать файлы