1 сезон

3 сезон

iTunes

1

Line

MVO

iTunes

13

1 сезон

RePack

30

Deluxe

pack

Лицензия

ВАЖНО

ИГРА 18+

pack

RePack

MK11

RePack

jed

RePack

fifa19

RePack

RDR2

RePack

NEED FOR SPEED™ PAYBACK

4 сезон

9 сезон

Бесстыжие 9 сезон

Все сериалы

все сериалы на PB.wtf

RePack

FAR CRY 5

Anonymous, доброй ночи, мы катастрофически не успеваем собрать деньги на оплату серверов, помогите нам пожалуйста 5,10,15р., для нас важна любая помощь . В качестве благодарности мы отключим Вам всю рекламу на сайте (укажите свой ник в строку Ваше имя)!

×
  
Magnet ссылка

Q: Загадка женщины / Q (Лоран Буник) [2011 г., драма, DVD9] pb.wtf

Q: Загадка женщины через торрент pb.wtf

Размер: 7.12 GB | Добавлен: 9 лет 4 мес. назад | Торрент скачан:23 раза
Скачать  

23-03-2012 09:50 Q: Загадка женщины Скачать торрент  

Q: Загадка женщины / Q

Год выпуска: 2011
Страна: Франция
Жанр: драма
Продолжительность: 01:42:18
Перевод: Профессиональный (многоголосый, закадровый) [Лицензия]
  • Режиссер: Лоран Буник
  • Продюссер: Чика Бенадава, Луди Бокен, Паскаль Юделевич
  • Сценарий: Лоран Буник

  • Премьера (мир): 14 сентября 2011

В ролях: Дебора Реви, Хелен Зиммер, Гоуэн Диди, Джонни Амаро, Жоан Либеро, Жан-Франсуа Галлот, Брайс Форнье, Кристелль Бенуа, Патрик Готье, Летиция Белличчини

Описание: Когда судьба приводит людей на грань отчаяния, единственным способом вновь ощутить вкус жизни может стать нежданный аттракцион грандиозных чувственных наслаждений, которые способна дарить каждому новому знакомому очаровательная Сесиль. Попадая к юной красотке в сладкий плен удовольствий, любой теряет голову; все прочее перестает иметь для него значение, кроме одного — секс, секс, секс...
  • Качество: DVD9
  • Формат: AVI
  • Видео кодек: MPEG2
  • Аудио кодек: AC3
  • Видео: MPEG 2, 720x576 (16:9), 25.000 fps, 8 469 Kbps (0.817 bit/pixel)
  • Аудио#1: AC-3, 48.0 KHz, 6 ch, 384 Kbps, CBR (Russian)
  • Аудио#2: AC-3, 48.0 KHz, 2 ch, 192 Kbps, CBR (Russian)
  • Аудио#3: AC-3, 48.0 KHz, 6 ch, 384 Kbps, CBR (Original)
  • Субтитры: Russian

скриншот  скриншот  скриншот  скриншот  скриншот  
скриншот  скриншот  скриншот  скриншот  скриншот  
Общее
Полное имя : E:\Q.Zagadka.zhenshiny.2011.P.DVD.ELEKTRI4KA\VIDEO_TS\VTS_01_1.VOB
Формат : MPEG-PS
Размер файла : 1024 Мбайт
Продолжительность : 14 м.
Общий поток : 9618 Кбит/сек
Библиотека кодирования : encoded by TMPGEnc (ver. 2.524.63.181)

Видео
Идентификатор : 224 (0xE0)
Формат : MPEG Video
Версия формата : Version 2
Профиль формата : Main@Main
Параметр BVOP формата : Да
Параметр матрицы формата : Выборочная
Продолжительность : 14 м.
Битрейт : 8467 Кбит/сек
Ширина : 720 пикселей
Высота : 576 пикселей
Соотношение сторон : 16:9
Частота кадров : 25,000 кадров/сек
Стандарт вещания : PAL
Цветовое пространство : YUV
Субдискретизация насыщенности : 4:2:0
Битовая глубина : 8 бит
Метод сжатия : С потерями
Бит/(Пиксели*Кадры) : 0.817
Размер потока : 901 Мбайт (88%)
Библиотека кодирования : TMPGEnc / 2.524.63.181 2.524.63.181
Основные цвета : BT.470-2 System B, BT.470-2 System G
Характеристики трансфера : BT.470-2 System B, BT.470-2 System G
Коэффициенты матрицы : BT.470-2 System B, BT.470-2 System G

Аудио #1
Идентификатор : 189 (0xBD)-128 (0x80)
Формат : AC-3
Формат/Информация : Audio Coding 3
Расширение режима : CM (complete main)
Режим смешивания : DVD-Video
Продолжительность : 14 м.
Вид битрейта : Постоянный
Битрейт : 384 Кбит/сек
Каналы : 6 каналов
Расположение каналов : Front: L C R, Side: L R, LFE
Частота : 48,0 КГц
Битовая глубина : 16 бит
Метод сжатия : С потерями
Задержка видео : 6 мс.
Размер потока : 40,9 Мбайт (4%)

Аудио #2
Идентификатор : 189 (0xBD)-129 (0x81)
Формат : AC-3
Формат/Информация : Audio Coding 3
Расширение режима : CM (complete main)
Режим смешивания : DVD-Video
Продолжительность : 14 м.
Вид битрейта : Постоянный
Битрейт : 192 Кбит/сек
Каналы : 2 канала
Расположение каналов : Front: L R
Частота : 48,0 КГц
Битовая глубина : 16 бит
Метод сжатия : С потерями
Задержка видео : 6 мс.
Размер потока : 20,4 Мбайт (2%)

Аудио #3
Идентификатор : 189 (0xBD)-130 (0x82)
Формат : AC-3
Формат/Информация : Audio Coding 3
Расширение режима : CM (complete main)
Режим смешивания : DVD-Video
Продолжительность : 14 м.
Вид битрейта : Постоянный
Битрейт : 384 Кбит/сек
Каналы : 6 каналов
Расположение каналов : Front: L C R, Side: L R, LFE
Частота : 48,0 КГц
Битовая глубина : 16 бит
Метод сжатия : С потерями
Задержка видео : 6 мс.
Размер потока : 40,9 Мбайт (4%)

Текст
Идентификатор : 189 (0xBD)-32 (0x20)
Формат : RLE
Формат/Информация : Run-length encoding
Режим смешивания : DVD-Video

Меню
Title: Q.Zagadka.zhenshiny.2011.P.DVD.ELEKTRI4KA
Size: 7.12 Gb ( 7 470 220,00 KBytes ) - DVD-9
Enabled regions: 1, 2, 3, 4, 5, 6, 7, 8

VTS_01 :
Play Length: 00:00:00+01:42:18+{00:00:00}
Video: PAL 16:9 (720x576) VBR, Auto Letterboxed
Audio:
Russian (Dolby AC3, 6 ch)
Russian (Dolby AC3, 2 ch)
Francais (Dolby AC3, 6 ch)
Subtitles:
Russian

VTS_02 :
Play Length: 00:00:00+00:00:05+00:00:13
Video: PAL 16:9 (720x576) VBR, Auto Letterboxed
Audio:
Russian (Dolby AC3, 6 ch)

VTS_03 :
Play Length: 00:00:00+00:01:54+{00:00:00}
Video: PAL 16:9 (720x576) VBR, Auto Letterboxed
Audio:
Russian (Dolby AC3, 2 ch)

* Menus Information *

VIDEO_TS Menu
Video:
PAL 4:3 (720x576) VBR
Auto Pan&Scan, Auto Letterboxed
Russian Language Unit :
Title Menu

VTS_01 Menu
Video:
PAL 16:9 (720x576) VBR
Auto Letterboxed
Audio:
Not specified (LinearPCM, 2 ch)
Russian Language Unit :
Root Menu

VTS_02 Menu
Video:
PAL 4:3 (720x576) VBR
Auto Pan&Scan, Auto Letterboxed
Language Unit :
Angle menu
Language Unit :

Language Unit :
Root Menu

VTS_03 Menu
Video:
PAL 4:3 (720x576) VBR
Auto Pan&Scan, Auto Letterboxed
Language Unit :
Angle menu
Language Unit :

Language Unit :
pb.wtf



Скачать Q: Загадка женщины через торрент http://i35.fastpic.ru/big/2012/0323/08/79ebc7d55debfa00ba117b64f5f4a808.png Скачать фильм Q: Загадка женщины через торрент бесплантно в хорошем качестве Описание: Когда судьба приводит людей на грань отчаяния, единственным способом вновь ощутить вкус жизни может стать нежданный аттракцион ... 4 10 1
Info! Золотая раздача, скачанное не засчитывается.
Торрент: Зарегистрирован [2012-03-23 09:50] · скачан: 23 раз
Статус: √ проверено
Размер: 7.12 GB
Как cкачать? Как скачать Q: Загадка женщины через торрент | UTorrent

% Раздел Тема Автор DL S | L
Фильмы 2013 [DVDrip, WEB-DLRip, HDrip] [ 2.18 GB ] Q: Загадка женщины / Q [2013 эротика BDRip-AVC 18 potroks Скачать
1 | 0
Фильмы (Blu-ray, BD-Remux, HDDVD) [ 19.59 GB ] Q: Загадка женщины / Q [2011 BD Remux [] Ворон Скачать
1 | 0
Фильмы 2011 [ 2.18 GB ] Q: Загадка женщины / Q [2011 Эротика Mело BDRip] MVO + Sub Rus + Original Fre Ворон Скачать
1 | 0
Фильмы 2011 [ 1.37 GB ] Q: Загадка женщины / Q [2011 эротика DVDRip лицензия] WISE Скачать
1 | 0

28-11-2019 20:33  

Отключить всю рекламу на сайте

    Дорогой пользователь! Огромная просьба, поблагодарите релизера, оцените раздачу и оставьте свои комментарий, если Вы скачали Q: Загадка женщины через торрент бесплатно! Внесите свою лепту в развитие PiratBit!
    Комментировать посты могут только пользователи прошедшие не сложную регистрацию
    Показать сообщения:    

    Q: Загадка женщины через торрент
    Скачать бесплатно Q: Загадка женщины
    Q: Загадка женщины скачать торрент
    Q: Загадка женщины смотреть онлайн
    Cкачать фильм Q: Загадка женщины бесплатно
    Q: Загадка женщины скачать торрент в хорошем качестве
    Q: Загадка женщины смотреть онлайн бесплатно в хорошем качестве


    Вы не можете начинать темы
    Вы не можете отвечать на сообщения
    Вы не можете редактировать свои сообщения
    Вы не можете удалять свои сообщения
    Вы не можете голосовать в опросах
    Вы не можете прикреплять файлы к сообщениям
    Вы можете скачивать файлы