1 сезон

3 сезон

iTunes

1

Line

MVO

iTunes

13

1 сезон

RePack

30

Deluxe

pack

Лицензия

ВАЖНО

ИГРА 18+

pack

RePack

MK11

RePack

jed

RePack

fifa19

RePack

RDR2

RePack

NEED FOR SPEED™ PAYBACK

4 сезон

9 сезон

Бесстыжие 9 сезон

Все сериалы

все сериалы на PB.wtf

RePack

FAR CRY 5

Anonymous, доброй ночи, мы катастрофически не успеваем собрать деньги на оплату серверов, помогите нам пожалуйста 5,10,15р., для нас важна любая помощь . В качестве благодарности мы отключим Вам всю рекламу на сайте (укажите свой ник в строку Ваше имя)!

×
  
Magnet ссылка

Первый мститель / Captain America. The First Avenger (Джо Джонстон / Joe Johnston) [2011 г., кинокомикс, фантастика, приключения, DVD5] pb.wtf

Первый мститель через торрент pb.wtf

Размер: 4.36 GB | Добавлен: 9 лет 4 мес. назад | Торрент скачан:159 раз
Скачать  

24-03-2012 21:50 Первый мститель Скачать торрент  

Первый мститель / Captain America. The First Avenger

Год выпуска: 2011
Страна: США
Жанр: кинокомикс, фантастика, приключения
Продолжительность: 01:59:06
Перевод: Профессиональный (полное дублирование)
Cубтитры: русские (Voronine), русские форсированные, украинские, английские, английские форсированные

Режиссер: Джо Джонстон / Joe Johnston
Продюссер: Амир Мадани, Кевин Файги, Виктория Алонсо, и др.
Сценарий: Кристофер Маркус, Стивен МакФили, Джо Саймон, и др.

Бюджет: $140 000 000
Премьера в мире: 19 июля 2011

В ролях: Крис Эванс (Captain America / Steve Rogers), Томми Ли Джонс (Colonel Chester Phillips), Хьюго Уивинг (Johann Schmidt / Red Skull), Доминик Купер (Howard Stark), Нил МакДонаф (Timothy 'Dum Dum' Dugan), Дерек Люк (Gabe Jones), Стенли Туччи (Dr. Abraham Erskine), Хейли Этвелл (Peggy Carter), Себастиан Стэн (James Buchanan 'Bucky' Barnes), Ричард Армитэдж (Heinz Kruger), Сэмюэл Л. Джексон (Nick Fury), Тоби Джонс (Dr. Arnim Zola)

Описание: Стив Роджерс добровольно соглашается принять участие в эксперименте, который превратит его в супер солдата, известного как Первый мститель. Роджерс вступает в вооруженные силы США вместе с Баки Барнсом и Пегги Картер, чтобы бороться с враждебной организацией ГИДРА, которой управляет безжалостный Красный Череп.

Доп. информация: Видео перекодировано в CCE SP2 в 5 проходов в режиме VBR со средним битрейтом 4185 кбит/с.

Качество: DVD5
Формат: DVD Video
Видео кодек: MPEG2
Аудио кодек: AC3
Видео: MPEG2, PAL, 720x576, 16:9, VBR, 4185 kbps, 25 fps
Аудио#1: русский дубляж, AC3, 6 ch, 48 kHz, 448 kbps
Аудио#2: английский оригинал, AC3, 6 ch, 48 kHz, 448 kbps
Релиз от: RG HD
Title: Captain.America.2011.DVD5.PAL
Size: 4.36 Gb ( 4 569 106,00 KBytes ) - DVD-5
Enabled regions: 1, 2, 3, 4, 5, 6, 7, 8

VTS_01 :
Play Length: 01:59:06
Video: PAL 16:9 (720x576) VBR, Auto Letterboxed
Audio:
Russian (Dolby AC3, 6 ch)
English (Dolby AC3, 6 ch)
Subtitles:
Russian
Ukrainian
English
Russian
English
General
Полное имя : D:\!done\Captain.America.2011.DVD5.PAL\VIDEO_TS\VTS_01_1.VOB
Формат : MPEG-PS
Размер файла : 1 024 MiB
Продолжительность : 29mn 37s
Режим общего битрейта : Variable
Общий поток : 4 832 Kbps

Video
Идентификатор : 224 (0xE0)
Формат : MPEG Video
Версия формата : Version 2
Профиль формата : Main@Main
Параметр BVOP формата : Yes
Параметр матрицы формата : Custom
Продолжительность : 29mn 37s
Вид битрейта : Variable
Битрейт : 3 839 Kbps
Максимальный битрейт : 9 800 Kbps
Ширина : 720 pixels
Высота : 576 pixels
Соотношение сторон : 16:9
Частота кадров : 25.000 fps
Стандарт вещания : PAL
Цветовое пространство : YUV
Субдискретизация насыщенности : 4:2:0
Битовая глубина : 8 bits
Тип развёртки : Progressive
Порядок развёртки : Top Field First
Метод сжатия : Lossy
Бит/(Пиксели*Кадры) : 0.370
Размер потока : 813 MiB (79%)

Audio #1
Идентификатор : 189 (0xBD)-128 (0x80)
Формат : AC-3
Формат/Информация : Audio Coding 3
Расширение режима : CM (complete main)
Режим смешивания : DVD-Video
Продолжительность : 29mn 36s
Вид битрейта : Constant
Битрейт : 448 Kbps
Каналы : 6 channels
Расположение каналов : Front: L C R, Side: L R, LFE
Частота : 48.0 KHz
Битовая глубина : 16 bits
Метод сжатия : Lossy
Размер потока : 94.9 MiB (9%)

Audio #2
Идентификатор : 189 (0xBD)-129 (0x81)
Формат : AC-3
Формат/Информация : Audio Coding 3
Расширение режима : CM (complete main)
Режим смешивания : DVD-Video
Продолжительность : 29mn 36s
Вид битрейта : Constant
Битрейт : 448 Kbps
Каналы : 6 channels
Расположение каналов : Front: L C R, Side: L R, LFE
Частота : 48.0 KHz
Битовая глубина : 16 bits
Метод сжатия : Lossy
Размер потока : 94.9 MiB (9%)
















pb.wtf



Скачать Первый мститель через торрент http://i28.fastpic.ru/big/2011/1030/11/b55b667e16dd0f9a19e3a3de8e5c6811.jpg Скачать фильм Первый мститель через торрент бесплантно в хорошем качестве Описание: Стив Роджерс добровольно соглашается принять участие в эксперименте, который превратит его в супер солдата, известного как Первый ... 9.8 10 6
Info! Золотая раздача, скачанное не засчитывается.
Торрент: Зарегистрирован [2012-03-24 21:50] · скачан: 159 раз
Статус: √ проверено
Размер: 4.36 GB
Как cкачать? Как скачать Первый мститель через торрент | UTorrent

% Раздел Тема Автор DL S | L
Фильмы (HD 720p, 1080p) (48-60 fps) [ 12.41 GB ] Первый мститель / Captain America: The First Avenger [2011 BDRip - HEVC 1080p 12 bit 60 FPS] DUB dd2d3 Скачать
1 | 0
Релизы по Парсеру [Игры, Сериалы и Фильмы и другое...] [ 1.12 GB ] Первый мститель / Агитатор / Captain America: The First Avenger [2011/2019 пародия юмористический перевод WEBRip] [MVO] killermax2013 Скачать
1 | 0
Ultra HD (UHD: 2K, 4K, 8K) — видео сверхвысокой чёткости [ 16.6 GB ] Первый мститель / Captain America: The First Avenger [2011 UHD BDRip 2160p] DUB + 2xAVO sheker187 Скачать
1 | 0
Ultra HD (UHD: 2K, 4K, 8K) — видео сверхвысокой чёткости [ 60.67 GB ] Первый мститель / Captain America: The First Avenger [2011 UHD BDRemux 2160p] 2xAVO+2xDUB [] bober100 Скачать
1 | 0
Ultra HD (UHD: 2K, 4K, 8K) — видео сверхвысокой чёткости [ 66.03 GB ] Первый мститель / Captain America: The First Avenger [2011 UHD Blu-ray 2160p] 2xAVO+2xDUB [] bober100 Скачать
1 | 0
Фильмы с авторской озвучкой [ 1.47 GB ] Первый мститель / Captain America: The First Avenger [2011 BDRip Авторский [Гаврилов] ASPID100 Скачать
1 | 0
Фильмы [HD 720p, 1080p] (Хороший звук DUB, MVO) [ 17.28 GB ] Первый мститель / Captain America: The First Avenger [2011 BDRip 1080p DUB + Оригинал+укр дубляж+Sub engrusukr Trava-HD Скачать
1 | 0


Последний раз редактировалось: ast323 (2012-03-25 18:41), всего редактировалось 6 раз(а)

28-11-2019 20:33  

Отключить всю рекламу на сайте

24-03-2012 23:13 Первый мститель Скачать торрент  

ast323
http://pb.wtf/viewtopic.php?t=74428
Для изменения статуса раздачи, после исправления уведомить в со ссылкой на раздачуpb.wtf



25-03-2012 00:43 Первый мститель Скачать торрент  

Как фильм????pb.wtf



25-03-2012 07:47 Первый мститель Скачать торрент  

CFCm1xer писал(а):

Как фильм????

Отличный!pb.wtf



    Дорогой пользователь! Огромная просьба, поблагодарите релизера, оцените раздачу и оставьте свои комментарий, если Вы скачали Первый мститель через торрент бесплатно! Внесите свою лепту в развитие PiratBit!
    Комментировать посты могут только пользователи прошедшие не сложную регистрацию
    Показать сообщения:    

    Первый мститель через торрент
    Скачать бесплатно Первый мститель
    Первый мститель скачать торрент
    Первый мститель смотреть онлайн
    Cкачать фильм Первый мститель бесплатно
    Первый мститель скачать торрент в хорошем качестве
    Первый мститель смотреть онлайн бесплатно в хорошем качестве


    Вы не можете начинать темы
    Вы не можете отвечать на сообщения
    Вы не можете редактировать свои сообщения
    Вы не можете удалять свои сообщения
    Вы не можете голосовать в опросах
    Вы не можете прикреплять файлы к сообщениям
    Вы можете скачивать файлы