Ссылка на приватное зеркало нашего сайта всего за 1$. Внимание количество ограничено!!!

2 сезон

iTunes

1 сезон

1

iTunes

iTunes

iTunes

1 сезон

RePack

30

ИГРА 18+

pack

ВАЖНО

!!Акция!!

Alien_RageХит недели

RePack

MK11
pack

Забери бонус

RePack

jed

!!Акция!!

Alien_Rage

RePack

fifa19

RePack

Assassins Creed: Odyssey

RePack

NEED FOR SPEED™ PAYBACK

4 сезон

9 сезон

Бесстыжие 9 сезон

Все сериалы

все сериалы на PB.wtf

RePack

FAR CRY 5
  

Последнее желание / The Last Request (Джон ДеБеллис) [2006 г., комедия, BDRip (720p)] pb.wtf

Последнее желание через торрент pb.wtf

Размер: 3.99 GB | Добавлен: 8 лет 7 мес. назад | Торрент скачан:128 раз
Скачать  

25-03-2012 09:48 Последнее желание Скачать торрент  

Последнее желание / The Last Request

Год выпуска: 2006
Страна: США
Жанр: комедия
Продолжительность: 01:31:38
Перевод: Профессиональный (многоголосый закадровый) + Оригинальная дорожка
Субтитры: русские

Режиссер: Джон ДеБеллис

В ролях: Т.Р. Найт, Дэнни Айелло, Марио Кантоне, Фрэнк Винсент, Сабрина Ллойд, Джо Пископо, Винсент Пасторе, Тони Ло Бьянко, Барбара Фелдон, Мэри Бердсонг

Описание: Пути Господни неисповедимы… Джеф учится в семинарии, и мысли его далеки от женщин. Но находясь на смертном одре, его умирающий отец завещает своим двум сыновьям Тому и Джефу во что бы то ни стало продолжить их род. И когда Том покидает этот мир, не исполнив последней воли отца, Джеф вынужден покинуть семинарию для более мирских забот. Робкий и застенчивый, он ходит по барам в поисках женщины, обращается к нетрадиционной медицине, помещает объявление в колонку знакомств, а помогает ему в этом симпатичная коллега по имени Кэти…

Качество: BDRip (720p)
Формат: MKV
Видео кодек: H.264
Аудио кодек: AC3, DTS
Видео: 1280x720, 24,00 fps, ~5017 Kbps
Аудио#1: 48,0 КГц, AC3 5.1, ~448 Kbps |MVO|
Аудио#2: 48,0 КГц, DTS 5.1, ~768 Kbps |eng|
General
Unique ID : 191658776225578226969323067070612866550 (0x9030233B4F4D7489801EFB408B4585F6)
Complete name : D:\HDFILMS\The.Last.Request.2006.BDRip.Rus.Eng.mkv
Format : Matroska
Format version : Version 2
File size : 3.99 GiB
Duration : 1h 31mn
Overall bit rate : 6 232 Kbps
Encoded date : UTC 2012-03-23 06:05:13
Writing application : mkvmerge v5.3.0 ('I could have danced') built on Feb 9 2012 10:38:07
Writing library : libebml v1.2.3 + libmatroska v1.3.0
Video #1
ID : 1
Format : AVC
Format/Info : Advanced Video Codec
Format profile : High@L4.1
Format settings, CABAC : Yes
Format settings, ReFrames : 8 frames
Codec ID : V_MPEG4/ISO/AVC
Duration : 1h 31mn
Bit rate : 5 017 Kbps
Width : 1 280 pixels
Height : 720 pixels
Display aspect ratio : 16:9
Frame rate : 24.000 fps
Color space : YUV
Chroma subsampling : 4:2:0
Bit depth : 8 bits
Scan type : Progressive
Bits/(Pixel*Frame) : 0.227
Stream size : 3.14 GiB (79%)
Title : The.Last.Request.2006.Blu-ray.720p.x264.DTS.MySilu
Writing library : x264 core 122 r2184 5c85e0a
Encoding settings : cabac=1 / ref=8 / deblock=1:-2:-2 / analyse=0x3:0x133 / me=umh / subme=9 / psy=1 / psy_rd=1.20:0.20 / mixed_ref=1 / me_range=16 / chroma_me=1 / trellis=2 / 8x8dct=1 / cqm=0 / deadzone=21,11 / fast_pskip=1 / chroma_qp_offset=-3 / threads=6 / sliced_threads=0 / nr=0 / decimate=0 / interlaced=0 / bluray_compat=0 / constrained_intra=0 / bframes=3 / b_pyramid=2 / b_adapt=2 / b_bias=0 / direct=3 / weightb=1 / open_gop=0 / weightp=2 / keyint=240 / keyint_min=1 / scenecut=40 / intra_refresh=0 / rc_lookahead=60 / rc=2pass / mbtree=1 / bitrate=5017 / ratetol=1.0 / qcomp=0.60 / qpmin=10 / qpmax=51 / qpstep=4 / cplxblur=20.0 / qblur=0.5 / vbv_maxrate=38000 / vbv_bufsize=38000 / nal_hrd=none / ip_ratio=1.40 / aq=1:1.00
Language : English
Default : Yes
Forced : No
Audio #2
ID : 2
Format : AC-3
Format/Info : Audio Coding 3
Mode extension : CM (complete main)
Codec ID : A_AC3
Duration : 1h 31mn
Bit rate mode : Constant
Bit rate : 448 Kbps
Channel(s) : 6 channels
Channel positions : Front: L C R, Side: L R, LFE
Sampling rate : 48.0 KHz
Bit depth : 16 bits
Compression mode : Lossy
Stream size : 294 MiB (7%)
Title : MVO AC3 5.1 448 kbps
Language : Russian
Default : Yes
Forced : No
Audio #3
ID : 3
Format : DTS
Format/Info : Digital Theater Systems
Format profile : ES
Codec ID : A_DTS
Duration : 1h 31mn
Bit rate mode : Constant
Bit rate : 755 Kbps
Channel(s) : 6 channels
Channel positions : Front: L C R, Side: L R, LFE
Sampling rate : 48.0 KHz
Bit depth : 16 bits
Compression mode : Lossy
Stream size : 495 MiB (12%)
Title : Original DTS 5.1 768 kpbs
Language : English
Default : No
Forced : No
Text #4
ID : 4
Format : UTF-8
Codec ID : S_TEXT/UTF8
Codec ID/Info : UTF-8 Plain Text
Language : Russian
Default : Yes
Forced : No
pb.wtf



Скачать Последнее желание через торрент http://pic.kartinco.top/images/2012/metem6owrx.jpg Скачать фильм Последнее желание через торрент бесплантно в хорошем качестве Описание: Пути Господни неисповедимы… Джеф учится в семинарии, и мысли его далеки от женщин. Но находясь на смертном одре, его умирающий ... 5 10 3
Info! Золотая раздача, скачанное не засчитывается.
Торрент: Зарегистрирован [2012-03-25 09:48] · скачан: 128 раз
Статус: √ проверено
Размер: 3.99 GB
Как cкачать? Как скачать Последнее желание через торрент | qTorrent

% Раздел Тема Автор DL S | L
Фильмы (DVD фильмы) [ 4.32 GB ] Последнее желание / The Last Request [2006 DVD5 лицензия] nickson-82 Скачать
1 | 0

28-11-2019 20:33  

Отключить всю рекламу на сайте

25-03-2012 12:54 Последнее желание Скачать торрент  

какбы не очень чтолиpb.wtf



    Дорогой пользователь! Огромная просьба, поблагодарите релизера, оцените раздачу и оставьте свои комментарий, если Вы скачали Последнее желание через торрент бесплатно! Внесите свою лепту в развитие PiratBit!
    Комментировать посты могут только пользователи прошедшие не сложную регистрацию
    Показать сообщения:    

    Последнее желание через торрент
    Скачать бесплатно Последнее желание
    Последнее желание скачать торрент
    Последнее желание смотреть онлайн
    Cкачать фильм Последнее желание бесплатно
    Последнее желание скачать торрент в хорошем качестве
    Последнее желание смотреть онлайн бесплатно в хорошем качестве


    Вы не можете начинать темы
    Вы не можете отвечать на сообщения
    Вы не можете редактировать свои сообщения
    Вы не можете удалять свои сообщения
    Вы не можете голосовать в опросах
    Вы не можете прикреплять файлы к сообщениям
    Вы можете скачивать файлы