Ссылка на приватное зеркало нашего сайта всего за 1$. Внимание количество ограничено!!!

2 сезон

iTunes

1 сезон

1

iTunes

iTunes

iTunes

1 сезон

RePack

30

ИГРА 18+

pack

ВАЖНО

!!Акция!!

Alien_RageХит недели

RePack

MK11
pack

Забери бонус

RePack

jed

!!Акция!!

Alien_Rage

RePack

fifa19

RePack

Assassins Creed: Odyssey

RePack

NEED FOR SPEED™ PAYBACK

4 сезон

9 сезон

Бесстыжие 9 сезон

Все сериалы

все сериалы на PB.wtf

RePack

FAR CRY 5
  

Близнецы-убийцы / Seconds Apart (Антонио Негрет / Antonio Negret) [2010 г., ужасы, триллер, BDRip (720p)] pb.wtf

Близнецы-убийцы через торрент pb.wtf

Размер: 4.6 GB | Добавлен: 8 лет 7 мес. назад | Торрент скачан:67 раз
Скачать  

25-03-2012 10:22 Близнецы-убийцы Скачать торрент  

Близнецы-убийцы / Seconds Apart

Год выпуска: 2010
Страна: США
Жанр: ужасы, триллер
Продолжительность: 01:29:07
Перевод: Профессиональный (многоголосый, закадровый) [Лицензия R5] + оригинальная аудиодорожка
Субтитры: русские, украинские, английские

Режиссер: Антонио Негрет / Antonio Negret

В ролях: Орландо Джонс, Эдмунд Энтин, Гари Энтин, Саманта Дроук, Луис Хертэм, Моргана Шоу, Моника Акоста

Описание: Мальчики из хорошего общества… Кто скажет, что они — безжалостные убийцы? Их дар — телекинез и этот дар стал их проклятием. Невероятные способности помутненного разума становятся орудием таких отвратительных преступлений, на которые способно лишь самое извращенное сознание. Сыщики ищут след загадочных маньяков. А в это время зло порождает жестокий конфликт между самими братьями-монстрами…

Качество: BDRip (720p)
Формат: MKV
Видео кодек: MPEG-4 AVC
Аудио кодек: AC3, DTS
Видео: MPEG-4 AVC, 1280x720, ~5515 кбит/сек, 23.976 fps
Аудио#1: 48 kHz, AC3 Dolby Digital, 3/2 (L,C,R,l,r) + LFE ch, ~384.00 kbps avg |MVO R5|
Аудио#2: 48 кГц, DTS, 3/2 (L,C,R,l,r) + LFE ch, ~1510 кбит/сек |eng|
Формат : Matroska
Версия формата : Version 2
Размер файла : 4,60 Гбайт
Продолжительность : 1 ч. 29 м.
Общий поток : 7391 Кбит/сек
Название фильма : www.mysilu.com
Дата кодирования : UTC 2012-03-22 12:33:10
Программа кодирования : mkvmerge v5.0.1 ('Es ist Sommer') built on Oct 9 2011 11:55:43
Библиотека кодирования : libebml v1.2.2 + libmatroska v1.3.0

Видео
Идентификатор : 1
Формат : AVC
Формат/Информация : Advanced Video Codec
Профиль формата : High@L4.1
Параметр CABAC формата : Да
Параметр ReFrames формата : 8 кадров
Идентификатор кодека : V_MPEG4/ISO/AVC
Продолжительность : 1 ч. 29 м.
Битрейт : 5515 Кбит/сек
Ширина : 1280 пикс.
Высота : 720 пикс.
Соотношение сторон : 16:9
Частота кадров : 23,976 кадр/сек
Цветовое пространство : YUV
Подвыборка цветности : 4:2:0
Битовая глубина : 8 бит
Тип развёртки : Прогрессивная
Бит/(Пиксели*Кадры) : 0.250
Размер потока : 3,33 Гбайт (72%)
Заголовок : Seconds.Apart.2011.BluRay.720p.x264.DTS-MySilu
Библиотека кодирования : x264 core 116 r2074 2641b9e
Настройки программы : cabac=1 / ref=8 / deblock=1:-2:-3 / analyse=0x3:0x113 / me=umh / subme=11 / psy=1 / psy_rd=1.05:0.10 / mixed_ref=1 / me_range=32 / chroma_me=1 / trellis=2 / 8x8dct=1 / cqm=0 / deadzone=21,11 / fast_pskip=0 / chroma_qp_offset=-3 / threads=24 / sliced_threads=0 / nr=0 / decimate=1 / interlaced=0 / bluray_compat=0 / constrained_intra=0 / bframes=5 / b_pyramid=2 / b_adapt=2 / b_bias=0 / direct=3 / weightb=1 / open_gop=0 / weightp=2 / keyint=360 / keyint_min=1 / scenecut=40 / intra_refresh=0 / rc_lookahead=60 / rc=2pass / mbtree=1 / bitrate=5515 / ratetol=1.0 / qcomp=0.60 / qpmin=0 / qpmax=69 / qpstep=4 / cplxblur=20.0 / qblur=0.5 / vbv_maxrate=40000 / vbv_bufsize=30000 / nal_hrd=none / ip_ratio=1.40 / aq=1:0.80
Язык : English

Аудио #1
Идентификатор : 2
Формат : AC-3
Формат/Информация : Audio Coding 3
Расширение режима : CM (complete main)
Идентификатор кодека : A_AC3
Продолжительность : 1 ч. 29 м.
Вид битрейта : Постоянный
Битрейт : 384 Кбит/сек
Каналы : 6 каналов
Расположение каналов : Front: L C R, Side: L R, LFE
Частота : 48,0 КГц
Битовая глубина : 16 бит
Метод сжатия : С потерями
Размер потока : 245 Мбайт (5%)
Заголовок : MVO R5
Язык : Russian

Аудио #2
Идентификатор : 3
Формат : DTS
Формат/Информация : Digital Theater Systems
Идентификатор кодека : A_DTS
Продолжительность : 1 ч. 29 м.
Вид битрейта : Постоянный
Битрейт : 1510 Кбит/сек
Каналы : 6 каналов
Расположение каналов : Front: L C R, Side: L R, LFE
Частота : 48,0 КГц
Битовая глубина : 24 бит
Метод сжатия : С потерями
Размер потока : 962 Мбайт (20%)
Заголовок : ENG DTS5.1 1.5M
Язык : English

Текст #1
Идентификатор : 4
Формат : UTF-8
Идентификатор кодека : S_TEXT/UTF8
Идентификатор кодека/Информация : UTF-8 Plain Text
Заголовок : sub Mokum
Язык : Russian

Текст #2
Идентификатор : 5
Формат : UTF-8
Идентификатор кодека : S_TEXT/UTF8
Идентификатор кодека/Информация : UTF-8 Plain Text
Заголовок : sub
Язык : Ukrainian

Текст #3
Идентификатор : 6
Формат : UTF-8
Идентификатор кодека : S_TEXT/UTF8
Идентификатор кодека/Информация : UTF-8 Plain Text
Заголовок : sub
Язык : English
pb.wtf



Скачать Близнецы-убийцы через торрент http://pic.kartinco.top/images/2012/pmkfkfobkb.jpg Скачать фильм Близнецы-убийцы через торрент бесплантно в хорошем качестве Описание: Мальчики из хорошего общества… Кто скажет, что они — безжалостные убийцы? Их дар — телекинез и этот дар стал их проклятием. ... 4.4 10 8
Info! Золотая раздача, скачанное не засчитывается.
Торрент: Зарегистрирован [2012-03-25 10:22] · скачан: 67 раз
Статус: √ проверено
Размер: 4.6 GB
Как cкачать? Как скачать Близнецы-убийцы через торрент | qTorrent

% Раздел Тема Автор DL S | L
Фильмы 2010 [ 1.45 GB ] Близнецы-убийцы / Seconds Apart [2010 BDRipMVO] VintMosina Скачать
1 | 0
Фильмы 2010 [ 1.36 GB ] Близнецы-убийцы / Seconds Apart [2010 HDRip лицензия] НеЗнАйКа Скачать
1 | 0
Фильмы 2010 [ 700 MB ] Близнецы-убийцы / Seconds Apart [2010 HDRip лицензия] Sудья Скачать
1 | 0
Фильмы (DVD фильмы) [ 3.9 GB ] Близнецы-убийцы / Seconds Apart [2010 DVD5] R5 voovaz Скачать
1 | 0

28-11-2019 20:33  

Отключить всю рекламу на сайте

25-03-2012 11:54 Близнецы-убийцы Скачать торрент  

Код:

[img=right]http://pic.pb.wtf/images/2012/scjw27cnvr.png[/img]

Код:

[img=right]http://pic.pb.wtf/images/2012/oa93gzpq5f.png[/img]

Код:

[img=right]http://pic.pb.wtf/images/2012/47i1rxa1em.png[/img]

pb.wtf



26-03-2012 10:09 Близнецы-убийцы Скачать торрент  

на раз и посмотреть можноpb.wtf



26-03-2012 13:07 Близнецы-убийцы Скачать торрент  

Похоже на хрень!pb.wtf



    Дорогой пользователь! Огромная просьба, поблагодарите релизера, оцените раздачу и оставьте свои комментарий, если Вы скачали Близнецы-убийцы через торрент бесплатно! Внесите свою лепту в развитие PiratBit!
    Комментировать посты могут только пользователи прошедшие не сложную регистрацию
    Показать сообщения:    

    Близнецы-убийцы через торрент
    Скачать бесплатно Близнецы-убийцы
    Близнецы-убийцы скачать торрент
    Близнецы-убийцы смотреть онлайн
    Cкачать фильм Близнецы-убийцы бесплатно
    Близнецы-убийцы скачать торрент в хорошем качестве
    Близнецы-убийцы смотреть онлайн бесплатно в хорошем качестве


    Вы не можете начинать темы
    Вы не можете отвечать на сообщения
    Вы не можете редактировать свои сообщения
    Вы не можете удалять свои сообщения
    Вы не можете голосовать в опросах
    Вы не можете прикреплять файлы к сообщениям
    Вы можете скачивать файлы