Ссылка на приватное зеркало нашего сайта всего за 1$. Внимание количество ограничено!!!

2 сезон

iTunes

1 сезон

1

2 сезон

2 сезон

iTunes

1 сезон

RePack

30

Ultimate

ВАЖНО

ИГРА 18+

pack

RePack

MK11
pack

Забери бонус

RePack

jed

!!Акция!!

Alien_Rage

RePack

fifa19

RePack

Assassins Creed: Odyssey

RePack

NEED FOR SPEED™ PAYBACK

4 сезон

9 сезон

Бесстыжие 9 сезон

Все сериалы

все сериалы на PB.wtf

RePack

FAR CRY 5
  

Связь / Прикосновение / Touch / Сезон: 1 / Серии: 3 из 13 (Френсис Лоуренс) [2012, Драма, SatRip] MVO (Первый канал) pb.wtf

Связь через торрент pb.wtf

Размер: 1.54 GB | Добавлен: 8 лет 8 мес. назад | Торрент скачан:41 раз
Скачать  

25-03-2012 21:46 Связь Скачать торрент  

Связь / Прикосновение / Touch [font="Georgia"]Год выпуска: 2012
Страна: США, 20th Century Fox Television, Chernin Entertainment, Tailwind Productions
Жанр: Драма
Продолжительность: ~00:42:47
Перевод: Профессиональный многоголосый закадровый (Первый канал)
Субтитры: Нет
Режиссер: Френсис Лоуренс
В ролях: Кифер Сазерленд, Карен Шенас-Дэвид, Девид де Латур, Джуди Эчавез, Масси Фурлан, Шак Гача, Дэнни Гловер, Ник Ходэли, Марк Иванир...

[font="Georgia"]Описание:
Он потерял любимую жену, и остался один воспитывать своего сына - аутиста. Все свое время он тратит на то, чтобы понять особое мышление своего сына и наладить с ним контакт, но до сих пор его попытки не приносили должного успеха, его ребенок оставался таким же молчаливым и замкнутым. Но в один момент Мартин понимает что его сын обладает особым даром гения - он предвидит события будущего, точки в которых действия одного человека могут подействовать на жизни других. Но выражает он свои видения в цифрах, расшифровать которые и предстоит его отцу, помешав тем самым случиться трагедии.
[font="Georgia"]Качество: SATRip
Формат: AVI
Видео кодек: XviD
Аудио кодек: MP3
Видео: 720x400 (16:9), 25 fps, XviD MPEG-4 ~1643 kbps avg, 0.228 bit/pixel
Аудио: 44,1 kHz, MPEG Layer 3, 2 ch, ~128.00 kbps avg





Внимание! Раздача ведётся путём добавления новых серий; при каждом добавлении создётся новый торрент. Чтобы начать докачку новой серии, пользователям необходимо сделать следующее:
(1) остановить скачивание,
(2) удалить старый торрент у себя из клиента (старые серии удалять не надо),
(3) скачать новый торрент и запустить его у себя в клиенте вместо старого, при этом указать клиенту путь в старую папку куда и должно происходить скачивание новых серий.

Ваш клиент при этом должен произвести хеширование (проверку) старой папки (если не производит сам - помогите ему сделать это), и будет докачивать только те серии которых у вас ещё нет. Старые серии при этом не удаляются, а продолжают раздаваться!

Eсли вы уже удалили старые серии, то предотвратить повторную закачку старых серий можно, отжав галочку в соответсвующих местах при запуске нового торрента. По возможности, желательно не удалять старые серии как можно дольше чтобы релизёр не столько продолжал раздавать старые серии, а смог сконцентрироваться на новых.
Общее
Полное имя : F:\ФИЛЬМЫ ТОРРЕНТА\Svjaz.(1.sezon.01.serija).2012.XviD.SATRip.BigFANGroup.avi
Формат : AVI
Формат/Информация : Audio Video Interleave
Профиль формата : OpenDML
Настройки формата : rec
Размер файла : 543 Мбайт
Продолжительность : 42 м.
Общий поток : 1775 Кбит/сек
Программа кодирования : AVI-Mux GUI 1.17.8.3, Feb 16 201019:42:50

Видео
Идентификатор : 0
Формат : MPEG-4 Visual
Профиль формата : Advanced Simple@L5
Параметр BVOP формата : 2
Параметр QPel формата : Нет
Параметр GMC формата : Без точки перехода
Параметр матрицы формата : Default (H.263)
Режим смешивания : Сжатый битовый поток
Идентификатор кодека : XVID
Идентификатор кодека/Подсказка : XviD
Продолжительность : 42 м.
Битрейт : 1643 Кбит/сек
Ширина : 720 пикселей
Высота : 400 пикселей
Соотношение сторон : 16:9
Частота кадров : 25,000 кадров/сек
Цветовое пространство : YUV
Субдискретизация насыщенности : 4:2:0
Битовая глубина : 8 бит
Тип развёртки : Прогрессивная
Метод сжатия : С потерями
Бит/(Пиксели*Кадры) : 0.228
Размер потока : 503 Мбайт (93%)
Библиотека кодирования : XviD 64

Аудио
Идентификатор : 1
Формат : MPEG Audio
Версия формата : Version 1
Профиль формата : Layer 3
Режим : Joint stereo
Расширение режима : MS Stereo
Идентификатор кодека : 55
Идентификатор кодека/Подсказка : MP3
Продолжительность : 42 м.
Вид битрейта : Постоянный
Битрейт : 128 Кбит/сек
Каналы : 2 канала
Частота : 44,1 КГц
Метод сжатия : С потерями
Размер потока : 39,2 Мбайт (7%)
Выравнивание : Разделение по промежуткам
Продолжительность промежутка : 515 мс. (12,87 видеокадров)
Время предзагрузки промежутка : 208 мс.
Библиотека кодирования : LAME3.98.2
pb.wtf



Скачать Связь через торрент http://s002.youpic.su/pictures/1332705600/d9bfa2133dffeda2cb630e1b6b7aa43a.png Скачать фильм Связь через торрент бесплантно в хорошем качестве Описание:Он потерял любимую жену, и остался один воспитывать своего сына - аутиста. Все свое время он тратит на то, чтобы понять особое ... 4.4 10 8
Info! Золотая раздача, скачанное не засчитывается.
Торрент: Зарегистрирован [2012-04-01 20:58] · скачан: 41 раз
Статус: √ проверено
Размер: 1.54 GB
Как cкачать? Как скачать Связь через торрент | qTorrent



Последний раз редактировалось: -=Cherry=- (2012-04-01 20:58), всего редактировалось 2 раз(а)

28-11-2019 20:33  

Отключить всю рекламу на сайте

26-03-2012 05:20 Связь Скачать торрент  

отличный интересный сериал)pb.wtf



26-03-2012 09:45 Связь Скачать торрент  

miamiheat писал(а):

отличный интересный сериал)

Согласен!!!!!!!!!!!!!!!!!!pb.wtf



26-03-2012 13:01 Связь Скачать торрент  

а когда следующая серия будет или когда он идет по первому каналуpb.wtf



26-03-2012 14:31 Связь Скачать торрент  

сериал просто блестящий... особенно для любителей математикиpb.wtf



02-04-2012 19:35 Связь Скачать торрент  

shurik1993 писал(а):

сериал просто блестящий... особенно для любителей математики

ну на счёт математики ты конечно выдал) там только намёк на неё)))pb.wtf



    Дорогой пользователь! Огромная просьба, поблагодарите релизера, оцените раздачу и оставьте свои комментарий, если Вы скачали Связь через торрент бесплатно! Внесите свою лепту в развитие PiratBit!
    Комментировать посты могут только пользователи прошедшие не сложную регистрацию
    Показать сообщения:    

    Связь через торрент
    Скачать бесплатно Связь
    Связь скачать торрент
    Связь смотреть онлайн
    Cкачать фильм Связь бесплатно
    Связь скачать торрент в хорошем качестве
    Связь смотреть онлайн бесплатно в хорошем качестве


    Вы не можете начинать темы
    Вы не можете отвечать на сообщения
    Вы не можете редактировать свои сообщения
    Вы не можете удалять свои сообщения
    Вы не можете голосовать в опросах
    Вы не можете прикреплять файлы к сообщениям
    Вы можете скачивать файлы