Ссылка на приватное зеркало нашего сайта всего за 1$. Внимание количество ограничено!!!

2 сезон

iTunes

1 сезон

1

iTunes

iTunes

iTunes

1 сезон

RePack

30

ИГРА 18+

pack

ВАЖНО

!!Акция!!

Alien_RageХит недели

RePack

MK11
pack

Забери бонус

RePack

jed

!!Акция!!

Alien_Rage

RePack

fifa19

RePack

Assassins Creed: Odyssey

RePack

NEED FOR SPEED™ PAYBACK

4 сезон

9 сезон

Бесстыжие 9 сезон

Все сериалы

все сериалы на PB.wtf

RePack

FAR CRY 5
  

Прошлой ночью в Нью-Йорке / Last Night (Мэсси Таджедин) [2010 г., мелодрама, BDRip (720p)] pb.wtf

Прошлой ночью в Нью-Йорке через торрент pb.wtf

Размер: 4.78 GB | Добавлен: 8 лет 7 мес. назад | Торрент скачан:98 раз
Скачать  

26-03-2012 06:44 Прошлой ночью в Нью-Йорке Скачать торрент  

Прошлой ночью в Нью-Йорке / Last Night

Год выпуска: 2010
Страна: США, Франция
Жанр: мелодрама
Продолжительность: 01:32:30
Перевод: Профессиональный (полное дублирование) + оригинальная аудиодорожка
Субтитры: русские, английские

Режиссер: Мэсси Таджедин

В ролях: Кира Найтли, Сэм Уортингтон, Ева Мендес, Гийом Кане, Энсон Маунт, Стефани Романов, Гриффин Данн, Скотт Эдсит, Дэниэл Эрик Голд, Стефен Мэйлер, Джастин Котсонас.

Описание: Молодожены Майкл и Джоанна - красивы, успешны, живут в огромной квартире центра Манхеттена, но всего одна ночь заставит их усомниться друг в друге…
За день до нее на вечеринке Джоанне всего на мгновение покажется, что Майкл неравнодушен к симпатичной Лауре, своей новой сотруднице, с которой ему предстоит отправиться в командировку… И когда на следующее утро неподалеку от дома Джоанна встретит своего бывшего возлюбленного, французского драматурга Алекса, она примет его предложение поужинать, не задумываясь…
Так начнется долгая ночь, которая станет для Джоанны и Майкла настоящим испытанием в супружеской верности…

Качество: BDRip (720p)
Формат: MKV
Видео кодек: AVC
Аудио кодек: AC3
Видео: 1280x544 (2.35:1), AVC, ~6127 Kbps, 23,976 fps, 0,367 bpp
Аудио#1: AC3 5.1, 48 kHz, ~640 kbps |Dub|
Аудио#2: AC3 5.1, 48 kHz, ~640 kbps |eng|

General
Unique ID : 237729885920675324952625036235871433517 (0xB2D91C5016699AD48D001B33DC3D332D)
Format : Matroska
Format version : Version 2
File size : 4.78 GiB
Duration : 1h 32mn
Overall bit rate : 7 402 Kbps
Movie name : Last Night (2010)
Encoded date : UTC 2012-03-03 22:33:06
Writing application : mkvmerge v5.2.1 ('A Far Off Place') built on Jan 2 2012 23:21:10
Writing library : libebml v1.2.3 + libmatroska v1.3.0

Video
ID : 1
Format : AVC
Format/Info : Advanced Video Codec
Format profile : High@L4.1
Format settings, CABAC : Yes
Format settings, ReFrames : 12 frames
Codec ID : V_MPEG4/ISO/AVC
Duration : 1h 32mn
Bit rate : 6 127 Kbps
Width : 1 280 pixels
Height : 544 pixels
Display aspect ratio : 2.35:1
Frame rate : 23.976 fps
Color space : YUV
Chroma subsampling : 4:2:0
Bit depth : 8 bits
Scan type : Progressive
Bits/(Pixel*Frame) : 0.367
Stream size : 3.86 GiB (81%)
Title : Video NTSC @ 6127 kbps - EbP
Writing library : x264 core 114 r1913 5fd3dce
Encoding settings : cabac=1 / ref=12 / deblock=1:-3:-3 / analyse=0x3:0x113 / me=tesa / subme=10 / psy=1 / psy_rd=1.10:0.00 / mixed_ref=1 / me_range=16 / chroma_me=1 / trellis=2 / 8x8dct=1 / cqm=0 / deadzone=21,11 / fast_pskip=0 / chroma_qp_offset=-2 / threads=6 / sliced_threads=0 / nr=0 / decimate=0 / interlaced=0 / constrained_intra=0 / bframes=9 / b_pyramid=2 / b_adapt=2 / b_bias=0 / direct=3 / weightb=1 / open_gop=0 / weightp=2 / keyint=250 / keyint_min=23 / scenecut=40 / intra_refresh=0 / rc=2pass / mbtree=0 / bitrate=6127 / ratetol=1.0 / qcomp=0.80 / qpmin=0 / qpmax=69 / qpstep=4 / cplxblur=20.0 / qblur=0.5 / ip_ratio=1.40 / pb_ratio=1.30 / aq=1:0.70
Language : English

Audio #1
ID : 2
Format : AC-3
Format/Info : Audio Coding 3
Mode extension : CM (complete main)
Codec ID : A_AC3
Duration : 1h 32mn
Bit rate mode : Constant
Bit rate : 640 Kbps
Channel(s) : 6 channels
Channel positions : Front: L C R, Side: L R, LFE
Sampling rate : 48.0 KHz
Bit depth : 16 bits
Compression mode : Lossy
Stream size : 423 MiB (9%)
Language : Russian

Audio #2
ID : 3
Format : AC-3
Format/Info : Audio Coding 3
Mode extension : CM (complete main)
Codec ID : A_AC3
Duration : 1h 32mn
Bit rate mode : Constant
Bit rate : 640 Kbps
Channel(s) : 6 channels
Channel positions : Front: L C R, Side: L R, LFE
Sampling rate : 48.0 KHz
Bit depth : 16 bits
Compression mode : Lossy
Stream size : 423 MiB (9%)
Language : English

Text #1
ID : 4
Format : UTF-8
Codec ID : S_TEXT/UTF8
Codec ID/Info : UTF-8 Plain Text
Language : Russian

Text #2
ID : 5
Format : UTF-8
Codec ID : S_TEXT/UTF8
Codec ID/Info : UTF-8 Plain Text
Language : English

Menu
00:00:00.000 : :00:00:00.000
00:04:49.164 : :00:04:49.164
00:07:56.893 : :00:07:56.893
00:13:07.161 : :00:13:07.161
00:18:20.808 : :00:18:20.808
00:22:42.361 : :00:22:42.361
00:26:33.759 : :00:26:33.759
00:31:52.035 : :00:31:52.035
00:35:37.844 : :00:35:37.844
00:40:46.110 : :00:40:46.110
00:45:08.289 : :00:45:08.289
00:47:59.919 : :00:47:59.919
00:54:55.334 : :00:54:55.334
00:59:59.012 : :00:59:59.012
01:02:14.481 : :01:02:14.481
01:07:25.541 : :01:07:25.541
01:15:01.539 : :01:15:01.539
01:24:17.678 : :01:24:17.678
pb.wtf



Скачать Прошлой ночью в Нью-Йорке через торрент http://pic.kartinco.top/images/2012/aznvkidw81.jpg Скачать фильм Прошлой ночью в Нью-Йорке через торрент бесплантно в хорошем качестве Описание: Молодожены Майкл и Джоанна - красивы, успешны, живут в огромной квартире центра Манхеттена, но всего одна ночь заставит их ... 4.3 10 3
Info! Золотая раздача, скачанное не засчитывается.
Торрент: Зарегистрирован [2012-03-26 06:44] · скачан: 98 раз
Статус: √ проверено
Размер: 4.78 GB
Как cкачать? Как скачать Прошлой ночью в Нью-Йорке через торрент | qTorrent

% Раздел Тема Автор DL S | L
Фильмы 2010 [ 1.36 GB ] Прошлой ночью в Нью-Йорке / Last Night [2010 DVDRip лицензия] SD Скачать
1 | 0
Фильмы 2010 [ 1.37 GB ] Прошлой ночью в Нью-Йорке / Last Night [2010 HDRip лицензия] Lil Badun Скачать
1 | 0
Фильмы [HD 720p, 1080p] (Хороший звук DUB, MVO) [ 5.24 GB ] Прошлой ночью в Нью-Йорке / Last Night [2010 BDRip / 720p] Go[L]dy Скачать
1 | 0
Фильмы 2010 [ 745 MB ] Прошлой ночью в Нью-Йорке / Last Night [2010 DVDRip лицензия] aspace Скачать
1 | 0
Фильмы (DVD фильмы) [ 5.37 GB ] Прошлой ночью в Нью-Йорке / Last Night [2010 DVD9] R5 «МОНОЛИТ» voovaz Скачать
1 | 0

28-11-2019 20:33  

Отключить всю рекламу на сайте

    Дорогой пользователь! Огромная просьба, поблагодарите релизера, оцените раздачу и оставьте свои комментарий, если Вы скачали Прошлой ночью в Нью-Йорке через торрент бесплатно! Внесите свою лепту в развитие PiratBit!
    Комментировать посты могут только пользователи прошедшие не сложную регистрацию
    Показать сообщения:    

    Прошлой ночью в Нью-Йорке через торрент
    Скачать бесплатно Прошлой ночью в Нью-Йорке
    Прошлой ночью в Нью-Йорке скачать торрент
    Прошлой ночью в Нью-Йорке смотреть онлайн
    Cкачать фильм Прошлой ночью в Нью-Йорке бесплатно
    Прошлой ночью в Нью-Йорке скачать торрент в хорошем качестве
    Прошлой ночью в Нью-Йорке смотреть онлайн бесплатно в хорошем качестве


    Вы не можете начинать темы
    Вы не можете отвечать на сообщения
    Вы не можете редактировать свои сообщения
    Вы не можете удалять свои сообщения
    Вы не можете голосовать в опросах
    Вы не можете прикреплять файлы к сообщениям
    Вы можете скачивать файлы