1 сезон

3 сезон

iTunes

1

Line

MVO

iTunes

13

1 сезон

RePack

30

Deluxe

pack

Лицензия

ВАЖНО

ИГРА 18+

pack

RePack

MK11

RePack

jed

RePack

fifa19

RePack

RDR2

RePack

NEED FOR SPEED™ PAYBACK

4 сезон

9 сезон

Бесстыжие 9 сезон

Все сериалы

все сериалы на PB.wtf

RePack

FAR CRY 5

Anonymous, доброй ночи, мы катастрофически не успеваем собрать деньги на оплату серверов, помогите нам пожалуйста 5,10,15р., для нас важна любая помощь . В качестве благодарности мы отключим Вам всю рекламу на сайте (укажите свой ник в строку Ваше имя)!

×
  
Magnet ссылка

Мужчины в большом городе 2 / Mannerherzen... und die ganz ganz grosse Liebe (Саймон Верховен / Simon Verhoeven) [2011, комедия, DVD9] R5 pb.wtf

Мужчины в большом городе 2 через торрент pb.wtf

Размер: 4.97 GB | Добавлен: 9 лет 4 мес. назад | Торрент скачан:115 раз
Скачать  

26-03-2012 21:02 Мужчины в большом городе 2 Скачать торрент  

[font="Georgia"]
Мужчины в большом городе 2 / Mannerherzen... und die ganz ganz grosse Liebe
Страна: Германия
Студия: Wiedemann & Berg Filmproduktion
Жанр: комедия
Год выпуска: 2011
Мировая премьера: 7 сентября 2011
Российская премьера: 22 февраля 2012
Дата выхода DVD: 29 марта 2012
Продолжительность: 01:47:51
Перевод: Профессиональный (дублированный) [Лицензия]
Cубтитры: нет
Режиссер: Саймон Верховен / Simon Verhoeven
В ролях: Тиль Швайгер, Флориан Дэвид Фитц, Кристиан Ульмен, Юстус фон Донаньи, Надя Уль, Паскуале Алеарди, Йоханнес Алльмайер, Томас Бадинг, Майкл Бэрал, Оли Бигальке и др.
Описание: Сюжет комедии показывает разных по характеру и роду деятельности мужчин. Один из них — хозяин кафе и будущий папа, второй — безработный, третий музыкальный продюсер и бабник, а четвертый разводится. Чего именно хотят мужчины — неизвестно. Ясно только, что все они весьма схожи в своем стремлении к счастью и любви.
Бонусы: нет

Релиз группы:
Качество: DVD9 R5
Формат: DVD-Video
Видео кодек: MPEG2
Аудио кодек: AC3
Видео: PAL 16:9 (720x576(0.579)) MPEG Video, 25,000 кадр/сек, 6001 Кбит/сек
Аудио: Russian (Dolby AC3, 6 ch) 448 Кбит/сек, 48,0 КГц



Title:
Size: 4.97 Gb ( 5 212 836 KBytes ) - DVD-9
Enabled regions: 1, 2, 3, 4, 5, 6, 7, 8

VTS_01 :
Play Length: 00:00:19
Video: PAL 4:3 (720x576) VBR
Audio:
Russian (Dolby AC3, 2 ch)

VTS_02 :
Play Length: 00:00:02
Video: PAL 16:9 (720x576) VBR, Auto Letterboxed
Audio:
Russian (Dolby AC3, 2 ch)

VTS_03 :
Play Length: 01:47:51
Video: PAL 16:9 (720x576) VBR, Auto Letterboxed
Audio:
Russian (Dolby AC3, 6 ch)

Menu Video:
PAL 4:3 (720x576) VBR
Menu English Language Unit :
Root Menu
Chapter (PTT) Menu
Общее
Полное имя : J:\Новинки 2012\Muzhchiny.v.bolshom.gorode.2.2011.DVD9\VIDEO_TS\VTS_03_2.VOB
Формат : MPEG-PS
Размер файла : 1024 Мбайт
Продолжительность : 21 м.
Общий поток : 6580 Кбит/сек

Видео
Идентификатор : 224 (0xE0)
Формат : MPEG Video
Версия формата : Version 2
Профиль формата : Main@Main
Параметр BVOP формата : Да
Параметр матрицы формата : По умолчанию
Параметр GOP формата : M=3, N=12
Продолжительность : 21 м.
Битрейт : 6001 Кбит/сек
Максимальный битрейт : 8400 Кбит/сек
Ширина : 720 пикселей
Высота : 576 пикселей
Соотношение сторон : 16:9
Частота кадров : 25,000 кадров/сек
Стандарт вещания : PAL
Цветовое пространство : YUV
Субдискретизация насыщенности : 4:2:0
Битовая глубина : 8 бит
Тип развёртки : Чересстрочная
Порядок развёртки : Верхнее поле первое
Метод сжатия : С потерями
Бит/(Пиксели*Кадры) : 0.579
Размер потока : 934 Мбайт (91%)

Аудио
Идентификатор : 189 (0xBD)-128 (0x80)
Формат : AC-3
Формат/Информация : Audio Coding 3
Расширение режима : CM (complete main)
Режим смешивания : DVD-Video
Продолжительность : 21 м.
Вид битрейта : Постоянный
Битрейт : 448 Кбит/сек
Каналы : 6 каналов
Расположение каналов : Front: L C R, Side: L R, LFE
Частота : 48,0 КГц
Битовая глубина : 16 бит
Метод сжатия : С потерями
Задержка видео : -608 мс.
Размер потока : 69,7 Мбайт (7%)










pb.wtf



Скачать Мужчины в большом городе 2 через торрент http://i32.fastpic.ru/big/2012/0327/be/da581269423b88d25e9f048ec64e5dbe.jpg Скачать фильм Мужчины в большом городе 2 через торрент бесплантно в хорошем качестве Описание: Сюжет комедии показывает разных по характеру и роду деятельности мужчин. Один из них — хозяин кафе и будущий папа, второй — ... 5 10 3
Info! Золотая раздача, скачанное не засчитывается.
Торрент: Зарегистрирован [2012-03-26 21:02] · скачан: 115 раз
Статус: √ проверено
Размер: 4.97 GB
Как cкачать? Как скачать Мужчины в большом городе 2 через торрент | UTorrent

28-11-2019 20:33  

Отключить всю рекламу на сайте

    Дорогой пользователь! Огромная просьба, поблагодарите релизера, оцените раздачу и оставьте свои комментарий, если Вы скачали Мужчины в большом городе 2 через торрент бесплатно! Внесите свою лепту в развитие PiratBit!
    Комментировать посты могут только пользователи прошедшие не сложную регистрацию
    Показать сообщения:    

    Мужчины в большом городе 2 через торрент
    Скачать бесплатно Мужчины в большом городе 2
    Мужчины в большом городе 2 скачать торрент
    Мужчины в большом городе 2 смотреть онлайн
    Cкачать фильм Мужчины в большом городе 2 бесплатно
    Мужчины в большом городе 2 скачать торрент в хорошем качестве
    Мужчины в большом городе 2 смотреть онлайн бесплатно в хорошем качестве


    Вы не можете начинать темы
    Вы не можете отвечать на сообщения
    Вы не можете редактировать свои сообщения
    Вы не можете удалять свои сообщения
    Вы не можете голосовать в опросах
    Вы не можете прикреплять файлы к сообщениям
    Вы можете скачивать файлы