2 сезон

iTunes

MVO

1

2 сезон

iTunes

iTunes

1 сезон

RePack

30

Новинка

ВАЖНО

ИГРА 18+

pack

RePack

MK11
pack

Легкие деньги

RePack

jed

RePack

fifa19

RePack

RDR2

RePack

NEED FOR SPEED™ PAYBACK

4 сезон

9 сезон

Бесстыжие 9 сезон

Все сериалы

все сериалы на PB.wtf

RePack

FAR CRY 5

Anonymous, добрый день, мы не успеваем собрать деньги на оплату серверов за декабрь и январь, помогите нам пожалуйста в это трудное время. В качестве благодарности мы отключим Вам всю рекламу на сайте (укажите свой ник в строку Ваше имя)!

×
  
Magnet ссылка

[Lady-Sonia] Holly (Cumming Hard With) [27.03.2012 г., Stockings, Nylons, Bra, Panties, Dildo, SATRip] pb.wtf

через торрент pb.wtf

Размер: 300 MB | Добавлен: 8 лет 10 мес. назад | Торрент скачан:74 раза
Скачать  

27-03-2012 11:31 Скачать торрент  

[font="sans-serif"][Lady-Sonia.com]
Holly Cumming Hard With
[27.03.2012 г.]

[font="sans-serif"]
Имя актрисы: Holly
Название ролика: Cumming Hard With
Подсайт и сайт: Lady-Sonia.com

Год производства: 2012 г.
Жанр: Stockings, Nylons, Bra, Panties, Dildo
Продолжительность: 00:19:58

Качество: SATRip
Формат видео: MP4
Видео кодек: AVC
Аудио кодек: AAC
Видео: 25.000 fps, 2 001 Kbps, 720x404
Аудио: 92.9 Kbps, 2 channels, 48.0 KHz

Описание:
This is another “spur of the moment” impromptu video with my very special friend Holly Kiss
and this video is the un-edited RAW footage after Holly asked if she could shoot a
“Masturbation Instruction” video last week here…
The video footage shows us both as Holly shows what she LOVES to do when she has a big hard cock
in her hands and then afterwards she gets to cum VERY hard and load for the camera as I photograph her with my iPhone…
This video is for REAL fans of GENUINE female orgasms on video and this video really was HUGE fun to shoot as you will see!
General
Complete name : Cumming Hard With Holly.mp4
Format : MPEG-4
Format profile : Base Media / Version 2
Codec ID : mp42
File size : 300 MiB
Duration : 19mn 58s
Overall bit rate mode : Variable
Overall bit rate : 2 097 Kbps
Encoded date : UTC 2012-02-09 02:38:05
Tagged date : UTC 2012-02-09 02:38:05
Writing library : AVS

Video
ID : 1
Format : AVC
Format/Info : Advanced Video Codec
Format profile : Baseline@L1.3
Format settings, CABAC : No
Format settings, ReFrames : 1 frame
Codec ID : avc1
Codec ID/Info : Advanced Video Coding
Duration : 19mn 58s
Bit rate : 2 001 Kbps
Width : 720 pixels
Height : 404 pixels
Display aspect ratio : 16:9
Frame rate mode : Constant
Frame rate : 25.000 fps
Color space : YUV
Chroma subsampling : 4:2:0
Bit depth : 8 bits
Scan type : Progressive
Bits/(Pixel*Frame) : 0.275
Stream size : 286 MiB (95%)
Language : English
Encoded date : UTC 2012-02-09 02:38:05
Tagged date : UTC 2012-02-09 02:38:05

Audio
ID : 2
Format : AAC
Format/Info : Advanced Audio Codec
Format profile : LC
Codec ID : 40
Duration : 19mn 58s
Bit rate mode : Variable
Bit rate : 92.9 Kbps
Maximum bit rate : 96.0 Kbps
Channel(s) : 2 channels
Channel positions : Front: L R
Sampling rate : 48.0 KHz
Compression mode : Lossy
Stream size : 13.3 MiB (4%)
Language : English
Encoded date : UTC 2012-02-09 02:38:05
Tagged date : UTC 2012-02-09 02:38:05
pb.wtf



pack Скачать через торрент http://i27.fastpic.ru/big/2012/0327/e2/b7ab2d2cf9f678dbfeab76b846a16ce2.jpg Скачать фильм [Lady-Sonia] Holly через торрент бесплантно в хорошем качестве Описание:This is another “spur of the moment” impromptu video with my very special friend Holly Kissand this video is the un-edited RAW ... 5 10 1
Info! Золотая раздача, скачанное не засчитывается.
Торрент: Зарегистрирован [2012-03-27 11:31] · скачан: 74 раз
Статус: √ проверено
Размер: 300 MB
Как cкачать? Как скачать через торрент | UTorrent

28-11-2019 20:33  

Отключить всю рекламу на сайте

    Дорогой пользователь! Огромная просьба, поблагодарите релизера, оцените раздачу и оставьте свои комментарий, если Вы скачали через торрент бесплатно! Внесите свою лепту в развитие PiratBit!
    Комментировать посты могут только пользователи прошедшие не сложную регистрацию
    Показать сообщения:    

    через торрент
    Скачать бесплатно
    скачать торрент
    смотреть онлайн
    Cкачать фильм бесплатно
    скачать торрент в хорошем качестве
    смотреть онлайн бесплатно в хорошем качестве


    Вы не можете начинать темы
    Вы не можете отвечать на сообщения
    Вы не можете редактировать свои сообщения
    Вы не можете удалять свои сообщения
    Вы не можете голосовать в опросах
    Вы не можете прикреплять файлы к сообщениям
    Вы можете скачивать файлы