1 сезон

3 сезон

iTunes

1

iTunes

MVO

iTunes

13

1 сезон

RePack

30

Deluxe

pack

Лицензия

ВАЖНО

ИГРА 18+

pack

RePack

MK11

RePack

jed

RePack

fifa19

RePack

RDR2

RePack

NEED FOR SPEED™ PAYBACK

4 сезон

9 сезон

Бесстыжие 9 сезон

Все сериалы

все сериалы на PB.wtf

RePack

FAR CRY 5

Anonymous, доброе утро, мы катастрофически не успеваем собрать деньги на оплату серверов, помогите нам пожалуйста 5,10,15р., для нас важна любая помощь . В качестве благодарности мы отключим Вам всю рекламу на сайте (укажите свой ник в строку Ваше имя)!

×
  
Magnet ссылка

Искатели могил / Grave Encounters (Вишес Бразерс / The Vicious Brothers) [2011, ужасы, триллер, DVD5] R5 pb.wtf

Искатели могил через торрент pb.wtf

Размер: 3.58 GB | Добавлен: 9 лет 3 мес. назад | Торрент скачан:125 раз
Скачать  

27-03-2012 20:02 Искатели могил Скачать торрент  

[font="Georgia"]
Искатели могил / Grave Encounters
«В марте 2003 года операторы реалити-шоу снимали сюжет в заброшенной психиатрической больнице, они искали доказательства существования жизни после смерти... и они нашли их»
Страна: Канада
Студия: Digital Interference Productions, Twin Engine Films
Жанр: ужасы, триллер
Год выпуска: 2011
Мировая премьера: 22 апреля 2011
Российская премьера: 16 февраля 2012
Дата выхода DVD: 29 марта 2012
Продолжительность: 01:29:33
Перевод: Профессиональный (многоголосый закадровый) [Лицензия]
Cубтитры: украинские
Режиссер: Вишес Бразерс / The Vicious Brothers
В ролях: Шон Роджерсон, Хуан Ридингер, МакКензи Грэй, Артур Корбер, Мишель Камминс, Луис Хавьер, Шоун МакДональд, Мервин Мондесер, Боб Рафи и др
Описание: Участники телевизионного шоу охотников за привидениями «Искатели» во главе с Лэнсом Прэстоном соглашаются провести ночь в психиатрической лечебнице, о которой давно ходят жуткие легенды. Запертые на ночь в большом здании больницы «искатели» быстро обнаружили, что теперь бороться с призраками придется всерьез, а не понарошку, так что дожить до утра у них нет никаких шансов…
Бонусы: нет

Релиз группы:
Качество: DVD5 R5
Формат: DVD-Video
Видео кодек: MPEG2
Аудио кодек: AC3
Видео: PAL 16:9 (720x576(0.536)) MPEG Video, 25,000 кадр/сек, 5557 Кбит/сек
Аудио: Russian (Dolby AC3, 6 ch) 384 Кбит/сек, 48,0 КГц



Title: New Volume
Size: 3.58 Gb ( 3 756 330 KBytes ) - DVD-5
Enabled regions: 1, 2, 3, 4, 5, 6, 7, 8

VTS_01 :
Play Length: 01:29:33
Video: PAL 16:9 (720x576) VBR, Auto Letterboxed
Audio:
Russian (Dolby AC3, 6 ch)
Subtitles:
Ukrainian

VTS_02 :
Play Length: 00:00:08
Video: PAL 4:3 (720x576) VBR

VTS_03 :
Play Length: 00:00:13
Video: PAL 16:9 (720x576) VBR, Auto Letterboxed

VTS_04 :
Play Length: 00:00:01+00:02:34+00:01:12
Video: PAL 16:9 (720x576) VBR, Auto Letterboxed
Audio:
English (Dolby AC3, 2 ch)

Menu Video:
PAL 4:3 (720x576) VBR
Auto Pan&Scan, Auto Letterboxed
Menu Russian Language Unit :
Root Menu
Subpicture Menu
Chapter (PTT) Menu
Angle menu
Общее
Полное имя : J:\Новинки 2012\Iskateli.mogil.2011.DVD5\VIDEO_TS\VTS_01_1.VOB
Формат : MPEG-PS
Размер файла : 1024 Мбайт
Продолжительность : 23 м.
Режим общего битрейта : Переменный
Общий поток : 6061 Кбит/сек

Видео
Идентификатор : 224 (0xE0)
Формат : MPEG Video
Версия формата : Version 2
Профиль формата : Main@Main
Параметр BVOP формата : Да
Параметр матрицы формата : Выборочная
Продолжительность : 23 м.
Вид битрейта : Переменный
Битрейт : 5557 Кбит/сек
Максимальный битрейт : 8000 Кбит/сек
Ширина : 720 пикселей
Высота : 576 пикселей
Соотношение сторон : 16:9
Частота кадров : 25,000 кадров/сек
Стандарт вещания : PAL
Цветовое пространство : YUV
Субдискретизация насыщенности : 4:2:0
Битовая глубина : 8 бит
Тип развёртки : Чересстрочная
Порядок развёртки : Верхнее поле первое
Метод сжатия : С потерями
Бит/(Пиксели*Кадры) : 0.536
Размер потока : 939 Мбайт (92%)

Аудио
Идентификатор : 189 (0xBD)-128 (0x80)
Формат : AC-3
Формат/Информация : Audio Coding 3
Расширение режима : CM (complete main)
Режим смешивания : DVD-Video
Продолжительность : 23 м.
Вид битрейта : Постоянный
Битрейт : 384 Кбит/сек
Каналы : 6 каналов
Расположение каналов : Front: L C R, Side: L R, LFE
Частота : 48,0 КГц
Битовая глубина : 16 бит
Метод сжатия : С потерями
Размер потока : 64,9 Мбайт (6%)

Текст
Идентификатор : 189 (0xBD)-32 (0x20)
Формат : RLE
Формат/Информация : Run-length encoding
Режим смешивания : DVD-Video










pb.wtf



Скачать Искатели могил через торрент http://i30.fastpic.ru/big/2012/0327/9b/5ef8034b063f628efa3e72aa3704a59b.png Скачать фильм Искатели могил через торрент бесплантно в хорошем качестве Описание: Участники телевизионного шоу охотников за привидениями «Искатели» во главе с Лэнсом Прэстоном соглашаются провести ночь в ... 9.5 10 2
Info! Золотая раздача, скачанное не засчитывается.
Торрент: Зарегистрирован [2012-03-27 20:02] · скачан: 125 раз
Статус: √ проверено
Размер: 3.58 GB
Как cкачать? Как скачать Искатели могил через торрент | UTorrent

% Раздел Тема Автор DL S | L
Фильмы (DVD фильмы) [ 4.04 GB ] Искатели могил 2 / Grave Encounters 2 [2012 DVD5] R5 voovaz Скачать
1 | 0

28-11-2019 20:33  

Отключить всю рекламу на сайте

27-03-2012 20:35 Искатели могил Скачать торрент  

мне понравился,правда смотрел в плохой озвучкеpb.wtf



27-03-2012 23:52 Искатели могил Скачать торрент  

пострашнее и получше поранорм-о явле-я буд!!!!советую,мне нрав)pb.wtf



28-03-2012 04:56 Искатели могил Скачать торрент  

Глянем, спасибоpb.wtf



28-03-2012 05:12 Искатели могил Скачать торрент  

ну так посмотреть можно pb.wtf



28-03-2012 12:32 Искатели могил Скачать торрент  

А что название расходится с обложкой. Какое из них верное.pb.wtf



28-03-2012 19:11 Искатели могил Скачать торрент  

0069 писал(а):

А что название расходится с обложкой. Какое из них верное.

М.... не знаю,я ставил Искатели могил.Проверяющий модератор значит так решил и изменил название. pb.wtf



    Дорогой пользователь! Огромная просьба, поблагодарите релизера, оцените раздачу и оставьте свои комментарий, если Вы скачали Искатели могил через торрент бесплатно! Внесите свою лепту в развитие PiratBit!
    Комментировать посты могут только пользователи прошедшие не сложную регистрацию
    Показать сообщения:    

    Искатели могил через торрент
    Скачать бесплатно Искатели могил
    Искатели могил скачать торрент
    Искатели могил смотреть онлайн
    Cкачать фильм Искатели могил бесплатно
    Искатели могил скачать торрент в хорошем качестве
    Искатели могил смотреть онлайн бесплатно в хорошем качестве


    Вы не можете начинать темы
    Вы не можете отвечать на сообщения
    Вы не можете редактировать свои сообщения
    Вы не можете удалять свои сообщения
    Вы не можете голосовать в опросах
    Вы не можете прикреплять файлы к сообщениям
    Вы можете скачивать файлы