Всегда рабочее зеркало без VPN и Proxy просто перед .vidak.icu напиши любое слово или цифру, Пример http://29om.vidak.icu

MVO

Лицензия

1 сезон

1

1 сезон

iTunes

1 сезон

13

1 сезон

Deluxe

pack

Рекомендуем

Пиратка

30

ВАЖНО

RePack

MK11

RePack

jed

RePack

fifa19

RePack

RDR2

RePack

NEED FOR SPEED™ PAYBACK

Кинопоиск HD

6 сезон

 Острые козырьки 6 сезон

Все сериалы

все сериалы на PB.wtf

RePack

FAR CRY 5

Anonymous, нам критически не хватает 2100 руб. на оплату серверов и переферии за МАЙ, помоги нам пожалуйста, вся надежда только на тебя. В благодарность мы отключим тебе всю рекламу на сайте!

×
  
Magnet ссылка

Бессердечный / Heartless (Филип Ридли) [2009 г., драма, ужасы, BDRip (720p)] pb.wtf

Бессердечный через торрент pb.wtf

Размер: 4.66 GB | Добавлен: 10 лет назад | Торрент скачан:70 раз
Смотреть онлайн Бессердечный | Скачать    Ребята, помогите собрать деньги на оплату серверов!!!

28-03-2012 06:15 Бессердечный Скачать торрент  

Бессердечный / Heartless

Год выпуска: 2009
Страна: Великобритания
Жанр: драма, ужасы
Продолжительность: 01:49:02
Перевод: Профессиональный (двухголосый)
Субтитры: английские

Режиссер: Филип Ридли

В ролях: Джим Стерджесс, Эдди Марсан, Тимоти Сполл, Клеманс Поэзи, Ноэль Кларк, Люк Тредэвэй, Джозеф Моул, Рут Шин, Bhasker Patel, Фрайзер Эйрс...

Описание: Фильм повествует о молодом человеке, который заключает сделку с дьяволом — в обмен на красоту и благополучие он должен стать жестоким убийцей.

Качество: BDRip (720p)
Формат: MKV
Видео кодек: H.264
Аудио кодек: AC3, DTS
Видео: 1280x544 (2.35:1), 25.000 fps, H.264 ~4230 kbps avg, 0.236 bit/pixel
Аудио#1: 48 kHz, Dolby AC3, 6 ch, ~384.00 kbps |rus|
Аудио#2: 48 kHz, DTS, 6 ch, ~1510.00 kbps |eng|

General
Format : Matroska
File size : 4.66 GiB
Duration : 1h 49mn
Overall bit rate : 6 123 Kbps
Movie name : avproh
Encoded date : UTC 2010-05-26 16:40:06
Writing application : mkvmerge v2.9.8 ('C'est le bon') built on Aug 13 2009 12:49:06
Writing library : libebml v0.7.7 + libmatroska v0.8.1

Video
ID : 1
Format : AVC
Format/Info : Advanced Video Codec
Format profile : High@L4.1
Format settings, CABAC : Yes
Format settings, ReFrames : 5 frames
Muxing mode : Container profile=Unknown@4.1
Codec ID : V_MPEG4/ISO/AVC
Duration : 1h 49mn
Bit rate : 4 107 Kbps
Nominal bit rate : 4 230 Kbps
Width : 1 280 pixels
Height : 544 pixels
Display aspect ratio : 2.35:1
Frame rate : 25.000 fps
Resolution : 8 bits
Colorimetry : 4:2:0
Scan type : Progressive
Bits/(Pixel*Frame) : 0.236
Stream size : 3.13 GiB (67%)
Writing library : x264 core 95 r1592 95aacc4
Encoding settings : cabac=1 / ref=5 / deblock=1:0:0 / analyse=0x3:0x133 / me=umh / subme=8 / psy=1 / psy_rd=1.00:0.00 / mixed_ref=1 / me_range=16 / chroma_me=1 / trellis=1 / 8x8dct=1 / cqm=0 / deadzone=21,11 / fast_pskip=0 / chroma_qp_offset=-2 / threads=12 / sliced_threads=0 / nr=0 / decimate=1 / interlaced=0 / constrained_intra=0 / bframes=3 / b_pyramid=2 / b_adapt=1 / b_bias=0 / direct=1 / weightb=1 / weightp=2 / keyint=250 / keyint_min=25 / scenecut=40 / intra_refresh=0 / rc_lookahead=40 / rc=2pass / mbtree=1 / bitrate=4230 / ratetol=1.0 / qcomp=0.60 / qpmin=10 / qpmax=51 / qpstep=4 / cplxblur=20.0 / qblur=0.5 / ip_ratio=1.40 / aq=1:1.00
Language : English

Audio #1
ID : 2
Format : AC-3
Format/Info : Audio Coding 3
Format_Settings_ModeExtension : CM (complete main)
Codec ID : A_AC3
Duration : 1h 49mn
Bit rate mode : Constant
Bit rate : 384 Kbps
Channel(s) : 6 channels
Channel positions : Front: L C R, Side: L R, LFE
Sampling rate : 48.0 KHz
Stream size : 300 MiB (6%)
Title : AC3 5.1 384 kbps
Language : Russian

Audio #2
ID : 3
Format : DTS
Format/Info : Digital Theater Systems
Codec ID : A_DTS
Duration : 1h 49mn
Bit rate mode : Constant
Bit rate : 1 510 Kbps
Channel(s) : 6 channels
Channel positions : Front: L C R, Side: L R, LFE
Sampling rate : 48.0 KHz
Resolution : 24 bits
Stream size : 1.15 GiB (25%)
Title : DTS
Language : English

Text
ID : 4
Format : UTF-8
Codec ID : S_TEXT/UTF8
Codec ID/Info : UTF-8 Plain Text
pb.wtf



Скачать Бессердечный через торрент https://pic1.kartinco.top/images/2012/zfrrepq6nd.jpg Скачать, смотреть онлайн Бессердечный бесплантно в хорошем качестве Описание: Фильм повествует о молодом человеке, который заключает сделку с дьяволом — в обмен на красоту и благополучие он должен стать ... 5 10 6
Info! Золотая раздача, скачанное не засчитывается.
Торрент: Зарегистрирован [2012-03-28 06:15] · скачан: 70 раз
Статус: √ проверено
Размер: 4.66 GB
Как cкачать? Как скачать Бессердечный через торрент | UTorrent

% Раздел Тема Автор DL S | L
Фильмы 2009 [ 1.46 GB ] Бессердечный / Heartless [2009 HDRip лицензия] кэп Скачать
1 | 0
Фильмы [HD 720p, 1080p] (Хороший звук DUB, MVO) [ 1.72 GB ] Бессердечный / Heartless [2009 BDRip ] 3DRAGO3 Скачать
1 | 0
Фильмы 2009 [ 1.37 GB ] Бессердечный / Heartless [2009 HDRip] MIO2008 Скачать
1 | 0

28-11-2019 20:33  

Отключить всю рекламу на сайте

28-03-2012 13:05 Бессердечный Скачать торрент  

Как фильм??pb.wtf



28-03-2012 13:31 Бессердечный Скачать торрент  

типо дориана грея или призрачного гонщикаpb.wtf



28-03-2012 13:33 Бессердечный Скачать торрент  

Тогда не катит! Но спасибо!!pb.wtf



    Дорогой пользователь! Огромная просьба, поблагодарите релизера, оцените раздачу и оставьте свои комментарий, если Вы скачали Бессердечный через торрент бесплатно!
    Комментировать посты могут только пользователи прошедшие не сложную регистрацию
    Показать сообщения:    

    Бессердечный через торрент
    Скачать бесплатно Бессердечный
    Бессердечный скачать торрент
    Бессердечный смотреть онлайн
    Cкачать фильм Бессердечный бесплатно
    Бессердечный скачать торрент в хорошем качестве
    Бессердечный смотреть онлайн бесплатно в хорошем качестве


    Вы не можете начинать темы
    Вы не можете отвечать на сообщения
    Вы не можете редактировать свои сообщения
    Вы не можете удалять свои сообщения
    Вы не можете голосовать в опросах
    Вы не можете прикреплять файлы к сообщениям
    Вы можете скачивать файлы