Ссылка на приватное зеркало нашего сайта всего за 1$. Внимание количество ограничено!!!

2 сезон

iTunes

1 сезон

1

iTunes

iTunes

iTunes

1 сезон

RePack

30

ИГРА 18+

pack

ВАЖНО

!!Акция!!

Alien_RageХит недели

RePack

MK11
pack

Забери бонус

RePack

jed

!!Акция!!

Alien_Rage

RePack

fifa19

RePack

Assassins Creed: Odyssey

RePack

NEED FOR SPEED™ PAYBACK

4 сезон

9 сезон

Бесстыжие 9 сезон

Все сериалы

все сериалы на PB.wtf

RePack

FAR CRY 5
  

Сначала любовь, потом свадьба / Love, Wedding, Marriage (Дермот Малруни / Dermot Mulroney) [2011 г., комедия, BDRip (720p)] pb.wtf

Сначала любовь, потом свадьба через торрент pb.wtf

Размер: 4.6 GB | Добавлен: 8 лет 6 мес. назад | Торрент скачан:145 раз
Скачать  

28-03-2012 17:38 Сначала любовь, потом свадьба Скачать торрент  

Сначала любовь, потом свадьба / Love, Wedding, Marriage

Год выпуска: 2011
Страна: США
Жанр: комедия
Продолжительность: 01:26:27
Перевод: Профессиональный (полное дублирование)

Режиссер: Дермот Малруни / Dermot Mulroney

В ролях: Мэнди Мур (Ava), Келлан Латс (Charlie), Джеймс Бролин (Bradley), Джейн Сеймур (Betty), Джессика Зор (Shelby), Майкл Уэстон (Gerber), Марта Жмуда (Kasia), Ричард Рейд (Ian), Кристофер Ллойд (Dr. George), Алексис Денисоф (Lloyd), Элисон Хэннигэн (Courtney), Коллин Кэмп (Ethel)

Описание: Ева Далтон — успешный брачный агент, чья философия брака основывается на 30-ти летнем браке ее родителей, однако внезапно родители подают на развод, и это переворачивает мир Евы. Вместе с сестрой они решают во что бы то ни стало предотвратить развод родителей.

Качество: BDRip (720p)
Формат: MKV
Видео кодек: AVC
Аудио кодек: AC3, DTS
Видео: 1280x528, AVC, 25.000 fps, ~5722 Kbps
Аудио#1: 48 kHz, AC3, 6ch, ~384 Kbps |rus|
Аудио#2: 48 kHz, DTS, 6сh ~1510 Kbps |eng|
Субтитры: русские, английские

Encoded date : UTC 2012-02-08 16:50:41
Writing application : mkvmerge v5.2.1 ('A Far Off Place') built on Jan 2 2012 23:21:10
Writing library : libebml v1.2.3 + libmatroska v1.3.0

Video
ID : 1
Format : AVC
Format/Info : Advanced Video Codec
Format profile : High@L4.1
Format settings, CABAC : Yes
Format settings, ReFrames : 5 frames
Codec ID : V_MPEG4/ISO/AVC
Duration : 1h 26mn
Bit rate : 5 722 Kbps
Width : 1 280 pixels
Height : 528 pixels
Display aspect ratio : 2.40:1
Frame rate : 25.000 fps
Color space : YUV
Chroma subsampling : 4:2:0
Bit depth : 8 bits
Scan type : Progressive
Bits/(Pixel*Frame) : 0.339
Stream size : 3.36 GiB (73%)
Title : Love, Wedding, Marriage.BDRip.720p.ELEKTRI4KA
Writing library : x264 core 116 r2057 0ba8a9c
Encoding settings : cabac=1 / ref=5 / deblock=1:0:0 / analyse=0x3:0x133 / me=umh / subme=7 / psy=1 / psy_rd=1.00:0.00 / mixed_ref=1 / me_range=16 / chroma_me=1 / trellis=1 / 8x8dct=1 / cqm=0 / deadzone=21,11 / fast_pskip=0 / chroma_qp_offset=-2 / threads=6 / sliced_threads=0 / nr=0 / decimate=1 / interlaced=0 / bluray_compat=0 / constrained_intra=0 / bframes=3 / b_pyramid=2 / b_adapt=1 / b_bias=0 / direct=1 / weightb=1 / open_gop=0 / weightp=1 / keyint=250 / keyint_min=25 / scenecut=40 / intra_refresh=0 / rc_lookahead=40 / rc=2pass / mbtree=1 / bitrate=5722 / ratetol=1.0 / qcomp=0.60 / qpmin=0 / qpmax=69 / qpstep=4 / cplxblur=20.0 / qblur=0.5 / ip_ratio=1.40 / aq=1:1.00
Language : English
Default : Yes
Forced : No

Audio #1
ID : 2
Format : AC-3
Format/Info : Audio Coding 3
Mode extension : CM (complete main)
Codec ID : A_AC3
Duration : 1h 26mn
Bit rate mode : Constant
Bit rate : 384 Kbps
Channel(s) : 6 channels
Channel positions : Front: L C R, Side: L R, LFE
Sampling rate : 48.0 KHz
Bit depth : 16 bits
Compression mode : Lossy
Delay relative to video : 2s 0ms
Stream size : 238 MiB (5%)
Language : Russian
Default : Yes
Forced : No

Audio #2
ID : 3
Format : DTS
Format/Info : Digital Theater Systems
Codec ID : A_DTS
Duration : 1h 26mn
Bit rate mode : Constant
Bit rate : 1 510 Kbps
Channel(s) : 6 channels
Channel positions : Front: L C R, Side: L R, LFE
Sampling rate : 48.0 KHz
Bit depth : 16 bits
Compression mode : Lossy
Delay relative to video : 11ms
Stream size : 934 MiB (20%)
Language : English
Default : No
Forced : No

Text #1
ID : 4
Format : UTF-8
Codec ID : S_TEXT/UTF8
Codec ID/Info : UTF-8 Plain Text
Language : Russian
Default : No
Forced : No

Text #2
ID : 5
Format : UTF-8
Codec ID : S_TEXT/UTF8
Codec ID/Info : UTF-8 Plain Text
Language : English
Default : No
Forced : No
pb.wtf



Скачать Сначала любовь, потом свадьба через торрент http://pic.kartinco.top/images/2012/lqyucy1msx.png Скачать фильм Сначала любовь, потом свадьба через торрент бесплантно в хорошем качестве Описание: Ева Далтон — успешный брачный агент, чья философия брака основывается на 30-ти летнем браке ее родителей, однако внезапно ... 3 10 2
Info! Золотая раздача, скачанное не засчитывается.
Торрент: Зарегистрирован [2012-03-28 17:38] · скачан: 145 раз
Статус: √ проверено
Размер: 4.6 GB
Как cкачать? Как скачать Сначала любовь, потом свадьба через торрент | qTorrent

% Раздел Тема Автор DL S | L
Фильмы 2011 [ 1.86 GB ] Сначала любовь потом свадьба / Love Wedding Marriage [2011 BDRip-AVC] Anonymous Скачать
1 | 0
Фильмы (DVD фильмы) [ 4.26 GB ] Сначала любовь потом свадьба / Love Wedding Marriage [2011 DVD5] R5 voovaz Скачать
1 | 0


Последний раз редактировалось: markfiter (2012-03-28 17:52), всего редактировалось 1 раз

28-11-2019 20:33  

Отключить всю рекламу на сайте

28-03-2012 17:50 Сначала любовь, потом свадьба Скачать торрент  

Фильм стоящий?pb.wtf



    Дорогой пользователь! Огромная просьба, поблагодарите релизера, оцените раздачу и оставьте свои комментарий, если Вы скачали Сначала любовь, потом свадьба через торрент бесплатно! Внесите свою лепту в развитие PiratBit!
    Комментировать посты могут только пользователи прошедшие не сложную регистрацию
    Показать сообщения:    

    Сначала любовь, потом свадьба через торрент
    Скачать бесплатно Сначала любовь, потом свадьба
    Сначала любовь, потом свадьба скачать торрент
    Сначала любовь, потом свадьба смотреть онлайн
    Cкачать фильм Сначала любовь, потом свадьба бесплатно
    Сначала любовь, потом свадьба скачать торрент в хорошем качестве
    Сначала любовь, потом свадьба смотреть онлайн бесплатно в хорошем качестве


    Вы не можете начинать темы
    Вы не можете отвечать на сообщения
    Вы не можете редактировать свои сообщения
    Вы не можете удалять свои сообщения
    Вы не можете голосовать в опросах
    Вы не можете прикреплять файлы к сообщениям
    Вы можете скачивать файлы