Ссылка на приватное зеркало нашего сайта всего за 1$. Внимание количество ограничено!!!

2 сезон

iTunes

1 сезон

1

iTunes

iTunes

iTunes

1 сезон

RePack

30

ИГРА 18+

pack

ВАЖНО

!!Акция!!

Alien_RageХит недели

RePack

MK11
pack

Забери бонус

RePack

jed

!!Акция!!

Alien_Rage

RePack

fifa19

RePack

Assassins Creed: Odyssey

RePack

NEED FOR SPEED™ PAYBACK

4 сезон

9 сезон

Бесстыжие 9 сезон

Все сериалы

все сериалы на PB.wtf

RePack

FAR CRY 5
  

Расплата / The Debt (Джон Мэдден / John Madden) [2010 г., триллер, драма, BDRip (1080p)] pb.wtf

Расплата через торрент pb.wtf

Размер: 11.44 GB | Добавлен: 8 лет 6 мес. назад | Торрент скачан:19 раз
Скачать  

28-03-2012 19:12 Расплата Скачать торрент  

Расплата / The Debt

Год выпуска: 2010
Страна: США
Жанр: триллер, драма
Продолжительность: 01:53:28
Перевод: Профессиональный (полное дублирование) [Лицензия] + оригинал
Субтитры: английские

Режиссер: Джон Мэдден / Ёхн Мадден

В ролях: Хелен Миррен, Том Уилкинсон, Кьяран Хайндс, Роми Абулафиа, Томер Бен Дэвид, Охев Бен Дэвид, Джонатан Узил, Эли Зохар, Ирен Бордан, Джессика Честейн, Мартон Чокаш, Сэм Уортингтон

Описание: В фильме рассказывается о трёх молодых агентах «Моссада» на секретном задании, которые в 1965 году похищают и убивают известного нацистского преступника. Тридцать лет спустя на Украине объявляется человек, обвинённый в нацизме, и одному из бывших агентов приходится вернуться к своей деятельности, чтобы докопаться до правды

Качество: BDRip (1080p)
Формат: MKV
Видео кодек: AVC
Аудио кодек: DTS
Видео: 1920х800, 11,9 мб/с, 23.976 fps, V_MPEG4/ISO/AVC
Аудиоъ1: DTS, ~755 кб/с, 5.1, 48 kHz, 16 битс |rus|
Аудиоъ2: DTS, ~1510 кб/с, 5.1, 48 kHz, 24 битс |eng|

General
Complete name : The.Debt.2010.D.BDRip.1080p.IRONCLUB.mkv
Format : Matroska
File size : 11.4 GiB
Duration : 1h 53mn
Overall bit rate : 14.4 Mbps
Movie name : IRONCLUB
Encoded date : UTC 2012-01-27 15:34:08
Writing application : mkvmerge v4.9.1 ('Ich will') сборка от Jul 11 2011 23:53:15
Writing library : libebml v1.2.1 + libmatroska v1.1.1

Video
ID : 1
Format : AVC
Format/Info : Advanced Video Codec
Format profile : High@L4.1
Format settings, CABAC : Yes
Format settings, ReFrames : 12 frames
Codec ID : V_MPEG4/ISO/AVC
Duration : 1h 53mn
Bit rate : 11.9 Mbps
Width : 1 920 pixels
Height : 800 pixels
Display aspect ratio : 2.40:1
Frame rate : 23.976 fps
Color space : YUV
Chroma subsampling : 4:2:0
Bit depth : 8 bits
Scan type : Progressive
Bits/(Pixel*Frame) : 0.323
Stream size : 9.42 GiB (82%)
Title : The Debt 2010 1080p BluRay AC3 x264-EbP
Writing library : x264 core 116 r2019 9cc407d
Encoding settings : cabac=1 / ref=12 / deblock=1:-3:-3 / analyse=0x3:0x133 / me=umh / subme=9 / psy=1 / psy_rd=1.15:0.14 / mixed_ref=1 / me_range=16 / chroma_me=1 / trellis=2 / 8x8dct=1 / cqm=0 / deadzone=21,11 / fast_pskip=0 / chroma_qp_offset=-3 / threads=12 / sliced_threads=0 / nr=0 / decimate=0 / interlaced=0 / bluray_compat=0 / constrained_intra=0 / bframes=8 / b_pyramid=2 / b_adapt=2 / b_bias=0 / direct=3 / weightb=1 / open_gop=0 / weightp=2 / keyint=250 / keyint_min=23 / scenecut=40 / intra_refresh=0 / rc=crf / mbtree=0 / crf=17.2 / qcomp=0.60 / qpmin=10 / qpmax=51 / qpstep=4 / ip_ratio=1.40 / pb_ratio=1.30 / aq=1:0.60
Language : English

Audio #1
ID : 2
Format : DTS
Format/Info : Digital Theater Systems
Codec ID : A_DTS
Duration : 1h 53mn
Bit rate mode : Constant
Bit rate : 755 Kbps
Channel(s) : 6 channels
Channel positions : Front: L C R, Side: L R, LFE
Sampling rate : 48.0 KHz
Bit depth : 16 bits
Stream size : 612 MiB (5%)
Title : DUB
Language : Russian

Audio #2
ID : 3
Format : DTS
Format/Info : Digital Theater Systems
Codec ID : A_DTS
Duration : 1h 53mn
Bit rate mode : Constant
Bit rate : 1 510 Kbps
Channel(s) : 6 channels
Channel positions : Front: L C R, Side: L R, LFE
Sampling rate : 48.0 KHz
Bit depth : 24 bits
Stream size : 1.20 GiB (10%)
Title : Original
Language : English

Text
ID : 4
Format : UTF-8
Codec ID : S_TEXT/UTF8
Codec ID/Info : UTF-8 Plain Text
Title : English
Language : English
pb.wtf



Скачать Расплата через торрент http://pic.kartinco.top/images/2012/dwpr2i8uxj.png Скачать фильм Расплата через торрент бесплантно в хорошем качестве Описание: В фильме рассказывается о трёх молодых агентах «Моссада» на секретном задании, которые в 1965 году похищают и убивают известного ... 5 10 5
Info! Золотая раздача, скачанное не засчитывается.
Торрент: Зарегистрирован [2012-03-28 19:12] · скачан: 19 раз
Статус: √ проверено
Размер: 11.44 GB
Как cкачать? Как скачать Расплата через торрент | qTorrent

% Раздел Тема Автор DL S | L
Фильмы 2010 [ 1.37 GB ] Расплата / The Debt [2010 HDRip лицензия] SD Скачать
1 | 0
Фильмы (DVD фильмы) [ 6.49 GB ] Расплата / The Debt [2010 DVD9] R5 voovaz Скачать
1 | 0
Фильмы 2010 [ 1.45 GB ] Расплата / The Debt [2010 HDRip лицензия] Twi7ter Скачать
1 | 0
Фильмы [HD 720p, 1080p] (Хороший звук DUB, MVO) [ 5.53 GB ] Расплата / The Debt [2010 BDRip лицензия] DEVI Скачать
1 | 0

28-11-2019 20:33  

Отключить всю рекламу на сайте

28-03-2012 20:29 Расплата Скачать торрент  

глянуть раз можно.....pb.wtf



28-03-2012 20:55 Расплата Скачать торрент  

так сеpb.wtf



    Дорогой пользователь! Огромная просьба, поблагодарите релизера, оцените раздачу и оставьте свои комментарий, если Вы скачали Расплата через торрент бесплатно! Внесите свою лепту в развитие PiratBit!
    Комментировать посты могут только пользователи прошедшие не сложную регистрацию
    Показать сообщения:    

    Расплата через торрент
    Скачать бесплатно Расплата
    Расплата скачать торрент
    Расплата смотреть онлайн
    Cкачать фильм Расплата бесплатно
    Расплата скачать торрент в хорошем качестве
    Расплата смотреть онлайн бесплатно в хорошем качестве


    Вы не можете начинать темы
    Вы не можете отвечать на сообщения
    Вы не можете редактировать свои сообщения
    Вы не можете удалять свои сообщения
    Вы не можете голосовать в опросах
    Вы не можете прикреплять файлы к сообщениям
    Вы можете скачивать файлы