2 сезон

iTunes

MVO

1

2 сезон

iTunes

iTunes

1 сезон

RePack

30

Новинка

ВАЖНО

ИГРА 18+

pack

RePack

MK11
pack

Легкие деньги

RePack

jed

RePack

fifa19

RePack

RDR2

RePack

NEED FOR SPEED™ PAYBACK

4 сезон

9 сезон

Бесстыжие 9 сезон

Все сериалы

все сериалы на PB.wtf

RePack

FAR CRY 5

Anonymous, добрый вечер, мы не успеваем собрать деньги на оплату серверов за декабрь и январь, помогите нам пожалуйста в это трудное время. В качестве благодарности мы отключим Вам всю рекламу на сайте (укажите свой ник в строку Ваше имя)!

×
  
Magnet ссылка

[Lady-Sonia] Danica Collins (One On One With) [30.03.2012 г., Stockings, Nylons, Bra, Panties, Vibrator, SATRip] pb.wtf

через торрент pb.wtf

Размер: 356 MB | Добавлен: 8 лет 9 мес. назад | Торрент скачан:142 раза
Скачать  

30-03-2012 09:06 Скачать торрент  

[font="sans-serif"][Lady-Sonia.com]
Danica Collins
One On One With
[30.03.2012 г]

[font="sans-serif"]Имя актрисы: Danica Collins
Название ролика: One On One With
Подсайт и сайт: Lady-Sonia.com

Год производства: 2012 г.
Жанр: Stockings, Nylons, Bra, Panties, Vibrator
Продолжительность: 00:23:42

Качество: SATRip
Формат видео: MP4
Видео кодек: AVC
Аудио кодек: AAC
Видео: 25.000 fps, 2 001 Kbps, 720x404
Аудио: 93.0 Kbps, 2 channels, 48.0 KHz

Описание:
This completely unedited “spur of the moment” video is a one-on-one footage where
she talks to you through the camera as she gets changed and tries on several different underwear sets…
Danica loves to wear VERY revealing lingerie under everything that she wears and in this video she
shows off some amazing tiny little see-through lace panties as well as her HUGE 34 “GG” tits spilling
out over the top of some amazing deep-plunge “balcony” bras as she talks to you and shares
this very private and intimate time with you as you watch EVERYTHING!
The camera comes in VERY close so that you can see...
General
Complete name : One On One With Danica Collins.mp4
Format : MPEG-4
Format profile : Base Media / Version 2
Codec ID : mp42
File size : 356 MiB
Duration : 23mn 42s
Overall bit rate mode : Variable
Overall bit rate : 2 097 Kbps
Encoded date : UTC 2012-03-08 13:58:17
Tagged date : UTC 2012-03-08 13:58:17
Writing library : AVS

Video
ID : 1
Format : AVC
Format/Info : Advanced Video Codec
Format profile : Baseline@L1.3
Format settings, CABAC : No
Format settings, ReFrames : 1 frame
Codec ID : avc1
Codec ID/Info : Advanced Video Coding
Duration : 23mn 42s
Bit rate : 2 001 Kbps
Width : 720 pixels
Height : 404 pixels
Display aspect ratio : 16:9
Frame rate mode : Constant
Frame rate : 25.000 fps
Color space : YUV
Chroma subsampling : 4:2:0
Bit depth : 8 bits
Scan type : Progressive
Bits/(Pixel*Frame) : 0.275
Stream size : 339 MiB (95%)
Language : English
Encoded date : UTC 2012-03-08 13:58:17
Tagged date : UTC 2012-03-08 13:58:17

Audio
ID : 2
Format : AAC
Format/Info : Advanced Audio Codec
Format profile : LC
Codec ID : 40
Duration : 23mn 42s
Bit rate mode : Variable
Bit rate : 93.0 Kbps
Maximum bit rate : 96.0 Kbps
Channel(s) : 2 channels
Channel positions : Front: L R
Sampling rate : 48.0 KHz
Compression mode : Lossy
Stream size : 15.8 MiB (4%)
Language : English
Encoded date : UTC 2012-03-08 13:58:17
Tagged date : UTC 2012-03-08 13:58:17
pb.wtf



pack Скачать через торрент http://i28.fastpic.ru/big/2012/0330/1c/a3b2766dd697e0bceb6e02bd1405041c.jpg Скачать фильм [Lady-Sonia] Danica Collins через торрент бесплантно в хорошем качестве Описание:This completely unedited “spur of the moment” video is a one-on-one footage whereshe talks to you through the camera as she gets ... 5 10 4
Info! Золотая раздача, скачанное не засчитывается.
Торрент: Зарегистрирован [2012-03-30 09:06] · скачан: 142 раз
Статус: √ проверено
Размер: 356 MB
Как cкачать? Как скачать через торрент | UTorrent

28-11-2019 20:33  

Отключить всю рекламу на сайте

    Дорогой пользователь! Огромная просьба, поблагодарите релизера, оцените раздачу и оставьте свои комментарий, если Вы скачали через торрент бесплатно! Внесите свою лепту в развитие PiratBit!
    Комментировать посты могут только пользователи прошедшие не сложную регистрацию
    Показать сообщения:    

    через торрент
    Скачать бесплатно
    скачать торрент
    смотреть онлайн
    Cкачать фильм бесплатно
    скачать торрент в хорошем качестве
    смотреть онлайн бесплатно в хорошем качестве


    Вы не можете начинать темы
    Вы не можете отвечать на сообщения
    Вы не можете редактировать свои сообщения
    Вы не можете удалять свои сообщения
    Вы не можете голосовать в опросах
    Вы не можете прикреплять файлы к сообщениям
    Вы можете скачивать файлы