Ссылка на приватное зеркало нашего сайта всего за 1$. Внимание количество ограничено!!!

2 сезон

iTunes

iTunes

1

iTunes

iTunes

iTunes

WEBRip

iTunes

30
pack

Вам бонус

ВАЖНО

!!Акция!!

Alien_RageХит недели

RePack

Horizon Zero Dawn

ИГРА 18+

pack

RePack

jed

!!Акция!!

Alien_Rage

RePack

fifa19

RePack

Assassins Creed: Odyssey

RePack

NEED FOR SPEED™ PAYBACK

4 сезон

9 сезон

Бесстыжие 9 сезон

Все сериалы

все сериалы на PB.wtf

RePack

FAR CRY 5
  

[AndreaNobiliProductions] Michelle Gomez (Anal lesson) [30.03.2012 г., Shemale, Bareback, All Sex, Uniforms, SiteRip] pb.wtf

через торрент pb.wtf

Размер: 453 MB | Добавлен: 8 лет 5 мес. назад | Торрент скачан:57 раз
Скачать  

30-03-2012 11:16 Скачать торрент  

[font="sans-serif"][AndreaNobiliProductions.com]
Michelle Gomez
Anal lesson
[30.03.2012 г.]

[font="sans-serif"]Год производства: 2012 г.
Жанр: Shemale, Bareback, All Sex, Uniforms
Продолжительность: 00:28:49

Студия: AndreaNobiliProductions.com

В ролях: Michelle Gomez

Качество видео: SiteRip
Формат видео: MP4
Видео кодек: AVC
Аудио кодек: AAC
Видео: 25.000 fps, 2 108 Kbps, 720x480
Аудио: 81.5 Kbps, 2 channels, 48.0 KHz

Описание:
Have you got a sex problem?
Don't you know what you like?
Talk with Michelle, she will give you answers...and not just answers!

General
Complete name : Michelle Gomez - Anal lesson.mp4
Format : MPEG-4
Format profile : Base Media
Codec ID : isom
File size : 453 MiB
Duration : 28mn 49s
Overall bit rate mode : Variable
Overall bit rate : 2 197 Kbps
Movie name : is33_2.mp4
Writing application : Lavf52.108.0

Video
ID : 1
Format : AVC
Format/Info : Advanced Video Codec
Format profile : High@L3.0
Format settings, CABAC : Yes
Format settings, ReFrames : 3 frames
Codec ID : avc1
Codec ID/Info : Advanced Video Coding
Duration : 28mn 49s
Bit rate : 2 108 Kbps
Width : 720 pixels
Height : 480 pixels
Display aspect ratio : 3:2
Frame rate mode : Constant
Frame rate : 25.000 fps
Standard : NTSC
Color space : YUV
Chroma subsampling : 4:2:0
Bit depth : 8 bits
Scan type : Progressive
Bits/(Pixel*Frame) : 0.244
Stream size : 435 MiB (96%)
Color primaries : BT.601-6 525, BT.1358 525, BT.1700 NTSC, SMPTE 170M
Transfer characteristics : BT.709-5, BT.1361
Matrix coefficients : BT.601-6 525, BT.1358 525, BT.1700 NTSC, SMPTE 170M

Audio
ID : 2
Format : AAC
Format/Info : Advanced Audio Codec
Format profile : LC
Codec ID : 40
Duration : 28mn 49s
Bit rate mode : Variable
Bit rate : 81.5 Kbps
Maximum bit rate : 128 Kbps
Channel(s) : 2 channels
Channel positions : Front: L R
Sampling rate : 48.0 KHz
Compression mode : Lossy
Stream size : 16.8 MiB (4%)
pb.wtf



pack Скачать через торрент http://i27.fastpic.ru/big/2012/0330/af/1845a3bc48a38a36df131da116e9ceaf.jpg Скачать фильм [AndreaNobiliProductions] Michelle Gomez через торрент бесплантно в хорошем качестве Описание:Have you got a sex problem?Don't you know what you like?Talk with Michelle, she will give you answers...and not just ... 2.3 10 3
Info! Золотая раздача, скачанное не засчитывается.
Торрент: Зарегистрирован [2012-03-30 11:16] · скачан: 57 раз
Статус: √ проверено
Размер: 453 MB
Как cкачать? Как скачать через торрент | qTorrent

28-11-2019 20:33  

Отключить всю рекламу на сайте

    Дорогой пользователь! Огромная просьба, поблагодарите релизера, оцените раздачу и оставьте свои комментарий, если Вы скачали через торрент бесплатно! Внесите свою лепту в развитие PiratBit!
    Комментировать посты могут только пользователи прошедшие не сложную регистрацию
    Показать сообщения:    

    через торрент
    Скачать бесплатно
    скачать торрент
    смотреть онлайн
    Cкачать фильм бесплатно
    скачать торрент в хорошем качестве
    смотреть онлайн бесплатно в хорошем качестве


    Вы не можете начинать темы
    Вы не можете отвечать на сообщения
    Вы не можете редактировать свои сообщения
    Вы не можете удалять свои сообщения
    Вы не можете голосовать в опросах
    Вы не можете прикреплять файлы к сообщениям
    Вы можете скачивать файлы