Ссылка на приватное зеркало нашего сайта всего за 1$. Внимание количество ограничено!!!

2 сезон

iTunes

1 сезон

1

iTunes

iTunes

iTunes

1 сезон

RePack

30

ИГРА 18+

pack

ВАЖНО

!!Акция!!

Alien_RageХит недели

RePack

MK11
pack

Забери бонус

RePack

jed

!!Акция!!

Alien_Rage

RePack

fifa19

RePack

Assassins Creed: Odyssey

RePack

NEED FOR SPEED™ PAYBACK

4 сезон

9 сезон

Бесстыжие 9 сезон

Все сериалы

все сериалы на PB.wtf

RePack

FAR CRY 5
  

Элитный отряд: Враг внутри / Elite Squad: The Enemy Within / Tropa de Elite 2 - O Inimigo Agora É Outr (Жозе Падилья) [2010 г., боевик, триллер, драма, криминал, BDRip (720p)] pb.wtf

Элитный отряд: Враг внутри через торрент pb.wtf

Размер: 7.75 GB | Добавлен: 8 лет 6 мес. назад | Торрент скачан:47 раз
Скачать  

01-04-2012 19:39 Элитный отряд: Враг внутри Скачать торрент  

Элитный отряд: Враг внутри / Elite Squad: The Enemy Within / Tropa de Elite 2 - O Inimigo Agora É Outr

Год выпуска: 2010
Страна: Бразилия
Жанр: боевик, триллер, драма, криминал
Продолжительность: 01:54:48
Перевод: Авторский (одноголосый, закадровый, Юрий Сербин)

Режиссер: Жозе Падилья

В ролях: Вагнер Мора, Ирандир, Андре Рамиро, Мильем Кортас, Мария Рибейро, Сеу Жоржи, Сандро Роча, Таина Мюллер, Андре Маттос

Описание: Элитный отряд показал себя весьма эффективным средством борьбы с наркокартелями, перекрыв кислород организованной преступности и разгромив несколько банд. Но тут совершенно неожиданно силы правопорядка начинают терпеть одно поражение за другим.

Качество: BDRip (720p)
Формат: MKV
Видео кодек: H.264
Аудио кодек: DTS
Видео: 1280x720, 23.976 fps, H.264 ~6 639 Kbps
Аудио#1: DTS 5.1, 48 kHz, 24 bit, 1510 kbps |AVO|
Аудио#2: DTS 5.1, 48 kHz, 24 bit, 1510 kbps |original|
Субтитры: русские, английские

Общее
Уникальный идентификатор : 190058477787827492126290659123304339626 (0x8EFBEE6D5277262E9114C024950018AA)
Формат : Matroska
Версия формата : Version 2
Размер файла : 7,75 Гбайт
Продолжительность : 1 ч. 54 м.
Общий поток : 9660 Кбит/сек
Название фильма : Tropa de Elite 2
Дата кодирования : UTC 2012-03-31 19:10:56
Программа кодирования : mkvmerge v5.0.1 ('Es ist Sommer') built on Oct 9 2011 11:55:43
Библиотека кодирования : libebml v1.2.2 + libmatroska v1.3.0

Видео
Идентификатор : 1
Формат : AVC
Формат/Информация : Advanced Video Codec
Профиль формата : High@L4.1
Параметр CABAC формата : Да
Параметр ReFrames формата : 9 кадров
Идентификатор кодека : V_MPEG4/ISO/AVC
Продолжительность : 1 ч. 54 м.
Битрейт : 6639 Кбит/сек
Ширина : 1280 пикс.
Высота : 720 пикс.
Соотношение сторон : 16:9
Частота кадров : 23,976 кадр/сек
Цветовое пространство : YUV
Подвыборка цветности : 4:2:0
Битовая глубина : 8 бит
Тип развёртки : Прогрессивная
Бит/(Пиксели*Кадры) : 0.300
Размер потока : 5,17 Гбайт (67%)
Заголовок : Tropa de Elite 2
Библиотека кодирования : x264 core 114 r1900 60ef1f8
Настройки программы : cabac=1 / ref=9 / deblock=1:-3:-3 / analyse=0x3:0x113 / me=umh / subme=9 / psy=1 / psy_rd=1.10:0.15 / mixed_ref=1 / me_range=32 / chroma_me=1 / trellis=2 / 8x8dct=1 / cqm=2 / deadzone=21,11 / fast_pskip=0 / chroma_qp_offset=-2 / threads=6 / sliced_threads=0 / nr=0 / decimate=1 / interlaced=0 / constrained_intra=0 / bframes=5 / b_pyramid=2 / b_adapt=2 / b_bias=0 / direct=3 / weightb=1 / open_gop=0 / weightp=2 / keyint=250 / keyint_min=23 / scenecut=40 / intra_refresh=0 / rc_lookahead=60 / rc=2pass / mbtree=1 / bitrate=6639 / ratetol=1.0 / qcomp=0.60 / qpmin=1 / qpmax=63 / qpstep=4 / cplxblur=20.0 / qblur=0.5 / vbv_maxrate=40000 / vbv_bufsize=30000 / nal_hrd=none / ip_ratio=1.40 / aq=1:0.80
Язык : Portuguese

Аудио #1
Идентификатор : 2
Формат : DTS
Формат/Информация : Digital Theater Systems
Идентификатор кодека : A_DTS
Продолжительность : 1 ч. 54 м.
Вид битрейта : Постоянный
Битрейт : 1510 Кбит/сек
Каналы : 6 каналов
Расположение каналов : Front: L C R, Side: L R, LFE
Частота : 48,0 КГц
Битовая глубина : 24 бит
Метод сжатия : С потерями
Размер потока : 1,21 Гбайт (16%)
Заголовок : Авторский одноголосый закадровый перевод, Юрий Сербин
Язык : Russian

Аудио #2
Идентификатор : 3
Формат : DTS
Формат/Информация : Digital Theater Systems
Идентификатор кодека : A_DTS
Продолжительность : 1 ч. 54 м.
Вид битрейта : Постоянный
Битрейт : 1510 Кбит/сек
Каналы : 6 каналов
Расположение каналов : Front: L C R, Side: L R, LFE
Частота : 48,0 КГц
Битовая глубина : 24 бит
Метод сжатия : С потерями
Размер потока : 1,21 Гбайт (16%)
Заголовок : Оригинальный потругальский звук
Язык : Portuguese

Текст #1
Идентификатор : 4
Формат : UTF-8
Идентификатор кодека : S_TEXT/UTF8
Идентификатор кодека/Информация : UTF-8 Plain Text
Заголовок : Русские субтитры, ak79
Язык : Russian

Текст #2
Идентификатор : 5
Формат : UTF-8
Идентификатор кодека : S_TEXT/UTF8
Идентификатор кодека/Информация : UTF-8 Plain Text
Заголовок : Английские субтитры
Язык : English
pb.wtf



Скачать Элитный отряд: Враг внутри через торрент http://pic.kartinco.top/images/2000/2wpxv1gwir.png Скачать фильм Элитный отряд: Враг внутри через торрент бесплантно в хорошем качестве Описание: Элитный отряд показал себя весьма эффективным средством борьбы с наркокартелями, перекрыв кислород организованной преступности и ... 5 10 7
Info! Золотая раздача, скачанное не засчитывается.
Торрент: Зарегистрирован [2012-04-01 19:39] · скачан: 47 раз
Статус: √ проверено
Размер: 7.75 GB
Как cкачать? Как скачать Элитный отряд: Враг внутри через торрент | qTorrent

% Раздел Тема Автор DL S | L
Фильмы (Blu-ray, BD-Remux, HDDVD) [ 30.59 GB ] Элитный отряд: Враг внутри / Elite Squad: The Enemy Within / Tropa de Elite 2 - O Inimigo Agora É Outr [2010 BDRemux 1080p от NNNB] AVO+Original+Sub _denis_100 Скачать
1 | 0
T Релизы по Парсеру [Игры, Сериалы и Фильмы и другое...] [ 745 MB ] Элитный отряд: Враг внутри / Elite Squad: The Enemy Within / Tropa de Elite 2 - O Inimigo Agora É Outr [2010 Бразилия HDRip] AVO |Ю.Сербин| sanekbest1 Скачать
1 | 0
Фильмы [HD 720p, 1080p] (Хороший звук DUB, MVO) [ 7.75 GB ] Элитный отряд: Враг внутри / Elite Squad: The Enemy Within / Tropa de Elite 2 - O Inimigo Agora É Outr [2010 BDRip 720p] AVO+Orig+Sub Mr. Freeman Скачать
1 | 0

28-11-2019 20:33  

Отключить всю рекламу на сайте

    Дорогой пользователь! Огромная просьба, поблагодарите релизера, оцените раздачу и оставьте свои комментарий, если Вы скачали Элитный отряд: Враг внутри через торрент бесплатно! Внесите свою лепту в развитие PiratBit!
    Комментировать посты могут только пользователи прошедшие не сложную регистрацию
    Показать сообщения:    

    Элитный отряд: Враг внутри через торрент
    Скачать бесплатно Элитный отряд: Враг внутри
    Элитный отряд: Враг внутри скачать торрент
    Элитный отряд: Враг внутри смотреть онлайн
    Cкачать фильм Элитный отряд: Враг внутри бесплатно
    Элитный отряд: Враг внутри скачать торрент в хорошем качестве
    Элитный отряд: Враг внутри смотреть онлайн бесплатно в хорошем качестве


    Вы не можете начинать темы
    Вы не можете отвечать на сообщения
    Вы не можете редактировать свои сообщения
    Вы не можете удалять свои сообщения
    Вы не можете голосовать в опросах
    Вы не можете прикреплять файлы к сообщениям
    Вы можете скачивать файлы