Присоединяйтесь к нам в Telegram!, здесь всегда актуальный адрес сайта, оперативная поддержка и многое другое!!

>

5.9

iTunes

7.4

iTunes

9.4

1 сезон

1

7.4

2 сезон

7.2

iTunes

7.3

1 сезон

13

6.1

iTunes

8.3

Пиратка

30

ULTIMATE

pack

9.9

Лицензия

ВАЖНО

ИГРА 18+

pack

7.3

RePack

MK11

7.7

RePack

jed

7.8

RePack

fifa19

8.5

RePack

RDR2

RePack

NEED FOR SPEED™ PAYBACK

5 сезон

9 сезон

Бесстыжие 9 сезон

Все сериалы

все сериалы на PB.wtf

RePack

FAR CRY 5

Anonymous, доброе утро, мы катастрофически не успеваем собрать деньги на оплату серверов, помогите нам пожалуйста 5,10,15р., для нас важна любая помощь . В качестве благодарности мы отключим Вам всю рекламу на сайте (укажите свой ник в строку Ваше имя)!

×
  
Magnet ссылка

Reflex на ELLO [2010 - 2012 г., Рор, HDRip] pb.wtf

Reflex на ELLO через торрент pb.wtf

Размер: 1.36 GB | Добавлен: 9 лет 8 мес. назад | Торрент скачан:182 раза
Смотреть онлайн Reflex на ELLO | Скачать    Ребята, помогите собрать деньги на оплату серверов!!!

02-04-2012 17:31 Reflex на ELLO Скачать торрент  

Reflex на ELLO

Год выпуска: 2010-2012
Страна: Россия
Жанр: Рор
Продолжительность: 01:28:11

Качество: HDRip - HDTVRip
Формат: MPEG-4
Видео кодек: AVC
Аудио кодек: ACC
Видео: 2405 Кбит/сек; 1280х720; 25,000 кадров/сек; AVC
Аудио: 126 Кбит/сек, 44,1 Кгц, 2 канала, AAC (LC)
1. [01:11] Ана Бастон в группе Reflex
2. [01:58] Reflex - Белая метелица
3. [02:57] Reflex и Ирина Нельсон - Селяви
4. [03:00] Reflex - I Can't Live (Old Version)
5. [03:00] Reflex - Non Stop (English Version)
6. [03:01] Reflex - I can't live without you (JPD Remix)
7. [03:10] Reflex - I can't live without you
8. [03:18] Reflex - Channel
9. [03:27] Reflex - Я разбила небо (Версия 2)
10. [03:34] Reflex - Distant Light
11. [03:36] Reflex - Может быть показалось (Симфоническая)
12. [03:37] Ирина Нельсон - Теплое солнце
13. [03:40] Reflex - Половинка
14. [03:45] Reflex - Это Новый Год
15. [03:47] Reflex - Hold me
16. [03:53] Reflex - Падали звезды
17. [03:54] Reflex - Танцы
18. [03:55] Reflex - Жесткое диско
19. [03:56] Reflex - Сколько лет сколько зим
20. [03:58] Reflex - Сойти с ума
21. [04:04] Reflex - Научи любить
22. [04:07] Reflex - Встречай новый день
23. [04:21] Reflex - Я тебя всегда буду ждать
24. [04:25] Reflex - I lose my mind 2000 (Live Олимпийский)
25. [04:25] Reflex - Сойти с Ума (Live)
Общее
Полное имя : D:\Загрузка\Reflex на ELLO\Reflex - Channel.mp4
Формат : MPEG-4
Профиль формата : Base Media / Version 2
Идентификатор кодека : mp42
Размер файла : 60,0 Мбайт
Продолжительность : 3 м. 18 с.
Режим общего битрейта : Переменный
Общий поток : 2536 Кбит/сек
Дата кодирования : UTC 2011-01-03 18:54:34
Дата пометки : UTC 2011-01-03 18:54:34
gsst : 0
gstd : 198560
gssd : B4A7DA886HH1333312045929222
gshh : o-o.preferred.svo01s01.v18.lscache1.c.youtube.com

Видео
Идентификатор : 1
Формат : AVC
Формат/Информация : Advanced Video Codec
Профиль формата : High@L3.1
Параметр CABAC формата : Да
Параметр ReFrames формата : 1 кадр
Идентификатор кодека : avc1
Идентификатор кодека/Информация : Advanced Video Coding
Продолжительность : 3 м. 18 с.
Битрейт : 2405 Кбит/сек
Максимальный битрейт : 4908 Кбит/сек
Ширина : 1280 пикселей
Высота : 720 пикселей
Соотношение сторон : 16:9
Режим частоты кадров : Постоянный
Частота кадров : 25,000 кадров/сек
Цветовое пространство : YUV
Субдискретизация насыщенности : 4:2:0
Битовая глубина : 8 бит
Тип развёртки : Прогрессивная
Бит/(Пиксели*Кадры) : 0.104
Размер потока : 56,9 Мбайт (95%)
Дата пометки : UTC 2011-01-03 18:54:38

Аудио
Идентификатор : 2
Формат : AAC
Формат/Информация : Advanced Audio Codec
Профиль формата : LC
Идентификатор кодека : 40
Продолжительность : 3 м. 18 с.
Вид битрейта : Переменный
Битрейт : 126 Кбит/сек
Максимальный битрейт : 195 Кбит/сек
Каналы : 2 канала
Расположение каналов : Front: L R
Частота : 44,1 КГц
Метод сжатия : С потерями
Размер потока : 2,98 Мбайт (5%)
Заголовок : (C) 2007 Google Inc. v08.13.2007.
Дата кодирования : UTC 2011-01-03 18:54:36
Дата пометки : UTC 2011-01-03 18:54:38

Общее
Полное имя : D:\Загрузка\Reflex на ELLO\Reflex - Distant Light.mp4
Формат : MPEG-4
Профиль формата : Base Media / Version 2
Идентификатор кодека : mp42
Размер файла : 73,3 Мбайт
Продолжительность : 3 м. 34 с.
Режим общего битрейта : Переменный
Общий поток : 2865 Кбит/сек
Дата кодирования : UTC 2011-01-03 19:06:10
Дата пометки : UTC 2011-01-03 19:06:10
gsst : 0
gstd : 214480
gssd : B4A7DA8C3HH1333311983499914
gshh : o-o.preferred.svo01s01.v3.lscache1.c.youtube.com

Видео
Идентификатор : 1
Формат : AVC
Формат/Информация : Advanced Video Codec
Профиль формата : High@L3.1
Параметр CABAC формата : Да
Параметр ReFrames формата : 1 кадр
Идентификатор кодека : avc1
Идентификатор кодека/Информация : Advanced Video Coding
Продолжительность : 3 м. 34 с.
Битрейт : 2733 Кбит/сек
Максимальный битрейт : 4995 Кбит/сек
Ширина : 1280 пикселей
Высота : 720 пикселей
Соотношение сторон : 16:9
Режим частоты кадров : Постоянный
Частота кадров : 25,000 кадров/сек
Цветовое пространство : YUV
Субдискретизация насыщенности : 4:2:0
Битовая глубина : 8 бит
Тип развёртки : Прогрессивная
Бит/(Пиксели*Кадры) : 0.119
Размер потока : 69,9 Мбайт (95%)
Дата пометки : UTC 2011-01-03 19:06:20

Аудио
Идентификатор : 2
Формат : AAC
Формат/Информация : Advanced Audio Codec
Профиль формата : LC
Идентификатор кодека : 40
Продолжительность : 3 м. 34 с.
Вид битрейта : Переменный
Битрейт : 128 Кбит/сек
Максимальный битрейт : 227 Кбит/сек
Каналы : 2 канала
Расположение каналов : Front: L R
Частота : 44,1 КГц
Метод сжатия : С потерями
Размер потока : 3,27 Мбайт (4%)
Заголовок : (C) 2007 Google Inc. v08.13.2007.
Дата кодирования : UTC 2011-01-03 19:06:15
Дата пометки : UTC 2011-01-03 19:06:20

Общее
Полное имя : D:\Загрузка\Reflex на ELLO\Reflex - Hold me.mp4
Формат : MPEG-4
Профиль формата : Base Media / Version 2
Идентификатор кодека : mp42
Размер файла : 65,8 Мбайт
Продолжительность : 3 м. 48 с.
Режим общего битрейта : Переменный
Общий поток : 2421 Кбит/сек
Дата кодирования : UTC 2011-01-03 18:32:48
Дата пометки : UTC 2011-01-03 18:32:48
gsst : 0
gstd : 228040
gssd : BADC23022HH1333311686139507
gshh : o-o.preferred.svo01s01.v2.lscache3.c.youtube.com

Видео
Идентификатор : 1
Формат : AVC
Формат/Информация : Advanced Video Codec
Профиль формата : High@L3.1
Параметр CABAC формата : Да
Параметр ReFrames формата : 1 кадр
Идентификатор кодека : avc1
Идентификатор кодека/Информация : Advanced Video Coding
Продолжительность : 3 м. 48 с.
Битрейт : 2289 Кбит/сек
Максимальный битрейт : 4889 Кбит/сек
Ширина : 1280 пикселей
Высота : 720 пикселей
Соотношение сторон : 16:9
Режим частоты кадров : Постоянный
Частота кадров : 25,000 кадров/сек
Цветовое пространство : YUV
Субдискретизация насыщенности : 4:2:0
Битовая глубина : 8 бит
Тип развёртки : Прогрессивная
Бит/(Пиксели*Кадры) : 0.099
Размер потока : 62,2 Мбайт (95%)
Дата пометки : UTC 2011-01-03 18:32:53

Аудио
Идентификатор : 2
Формат : AAC
Формат/Информация : Advanced Audio Codec
Профиль формата : LC
Идентификатор кодека : 40
Продолжительность : 3 м. 47 с.
Вид битрейта : Переменный
Битрейт : 128 Кбит/сек
Максимальный битрейт : 189 Кбит/сек
Каналы : 2 канала
Расположение каналов : Front: L R
Частота : 44,1 КГц
Метод сжатия : С потерями
Размер потока : 3,47 Мбайт (5%)
Заголовок : (C) 2007 Google Inc. v08.13.2007.
Дата кодирования : UTC 2011-01-03 18:32:51
Дата пометки : UTC 2011-01-03 18:32:53

Общее
Полное имя : D:\Загрузка\Reflex на ELLO\Reflex - I Can't Live (Old Version).mp4
Формат : MPEG-4
Профиль формата : Base Media / Version 2
Идентификатор кодека : mp42
Размер файла : 15,4 Мбайт
Продолжительность : 3 м. 0 с.
Режим общего битрейта : Переменный
Общий поток : 717 Кбит/сек
Дата кодирования : UTC 2010-11-22 06:38:39
Дата пометки : UTC 2010-11-22 06:38:39
gsst : 0
gstd : 180061
gssd : B4A7DA325HH1333311214707887
gshh : o-o.preferred.svo01s01.v10.lscache4.c.youtube.com

Видео
Идентификатор : 1
Формат : AVC
Формат/Информация : Advanced Video Codec
Профиль формата : Baseline@L3.0
Параметр CABAC формата : Нет
Параметр ReFrames формата : 1 кадр
Идентификатор кодека : avc1
Идентификатор кодека/Информация : Advanced Video Coding
Продолжительность : 3 м. 0 с.
Битрейт : 615 Кбит/сек
Максимальный битрейт : 1072 Кбит/сек
Ширина : 480 пикселей
Высота : 360 пикселей
Соотношение сторон : 4:3
Режим частоты кадров : Переменный
Частота кадров : 29,970 кадров/сек
Минимальная частота кадров : 29,412 кадров/сек
Максимальная частота кадров : 200,000 кадров/сек
Цветовое пространство : YUV
Субдискретизация насыщенности : 4:2:0
Битовая глубина : 8 бит
Тип развёртки : Прогрессивная
Бит/(Пиксели*Кадры) : 0.119
Размер потока : 13,2 Мбайт (86%)
Дата пометки : UTC 2010-11-22 06:38:41

Аудио
Идентификатор : 2
Формат : AAC
Формат/Информация : Advanced Audio Codec
Профиль формата : LC
Идентификатор кодека : 40
Продолжительность : 3 м. 0 с.
Вид битрейта : Переменный
Битрейт : 96,0 Кбит/сек
Максимальный битрейт : 169 Кбит/сек
Каналы : 2 канала
Расположение каналов : Front: L R
Частота : 44,1 КГц
Метод сжатия : С потерями
Размер потока : 2,06 Мбайт (13%)
Заголовок : (C) 2007 Google Inc. v08.13.2007.
Дата кодирования : UTC 2010-11-22 06:38:40
Дата пометки : UTC 2010-11-22 06:38:41

Общее
Полное имя : D:\Загрузка\Reflex на ELLO\Reflex - I can't live without you (JPD Remix).mp4
Формат : MPEG-4
Профиль формата : Base Media / Version 2
Идентификатор кодека : mp42
Размер файла : 60,5 Мбайт
Продолжительность : 3 м. 1 с.
Режим общего битрейта : Переменный
Общий поток : 2800 Кбит/сек
Дата кодирования : UTC 2011-01-03 18:39:26
Дата пометки : UTC 2011-01-03 18:39:26
gsst : 0
gstd : 181360
gssd : B4A7DA84BHH1333312155290792
gshh : o-o.preferred.svo01s01.v11.lscache5.c.youtube.com

Видео
Идентификатор : 1
Формат : AVC
Формат/Информация : Advanced Video Codec
Профиль формата : High@L3.1
Параметр CABAC формата : Да
Параметр ReFrames формата : 1 кадр
Идентификатор кодека : avc1
Идентификатор кодека/Информация : Advanced Video Coding
Продолжительность : 3 м. 1 с.
Битрейт : 2668 Кбит/сек
Максимальный битрейт : 5423 Кбит/сек
Ширина : 1280 пикселей
Высота : 720 пикселей
Соотношение сторон : 16:9
Режим частоты кадров : Постоянный
Частота кадров : 25,000 кадров/сек
Цветовое пространство : YUV
Субдискретизация насыщенности : 4:2:0
Битовая глубина : 8 бит
Тип развёртки : Прогрессивная
Бит/(Пиксели*Кадры) : 0.116
Размер потока : 57,7 Мбайт (95%)
Дата пометки : UTC 2011-01-03 18:39:35

Аудио
Идентификатор : 2
Формат : AAC
Формат/Информация : Advanced Audio Codec
Профиль формата : LC
Идентификатор кодека : 40
Продолжительность : 3 м. 1 с.
Вид битрейта : Переменный
Битрейт : 127 Кбит/сек
Максимальный битрейт : 205 Кбит/сек
Каналы : 2 канала
Расположение каналов : Front: L R
Частота : 44,1 КГц
Метод сжатия : С потерями
Размер потока : 2,75 Мбайт (5%)
Заголовок : (C) 2007 Google Inc. v08.13.2007.
Дата кодирования : UTC 2011-01-03 18:39:31
Дата пометки : UTC 2011-01-03 18:39:35

Общее
Полное имя : D:\Загрузка\Reflex на ELLO\Reflex - I can't live without you.mp4
Формат : MPEG-4
Профиль формата : Base Media / Version 2
Идентификатор кодека : mp42
Размер файла : 61,9 Мбайт
Продолжительность : 3 м. 10 с.
Режим общего битрейта : Переменный
Общий поток : 2724 Кбит/сек
Дата кодирования : UTC 2011-01-03 18:35:43
Дата пометки : UTC 2011-01-03 18:35:43
gsst : 0
gstd : 190640
gssd : B4A7DA803HH1333311631189802
gshh : o-o.preferred.svo01s01.v3.lscache1.c.youtube.com

Видео
Идентификатор : 1
Формат : AVC
Формат/Информация : Advanced Video Codec
Профиль формата : High@L3.1
Параметр CABAC формата : Да
Параметр ReFrames формата : 1 кадр
Идентификатор кодека : avc1
Идентификатор кодека/Информация : Advanced Video Coding
Продолжительность : 3 м. 10 с.
Битрейт : 2592 Кбит/сек
Максимальный битрейт : 5043 Кбит/сек
Ширина : 1280 пикселей
Высота : 720 пикселей
Соотношение сторон : 16:9
Режим частоты кадров : Постоянный
Частота кадров : 25,000 кадров/сек
Цветовое пространство : YUV
Субдискретизация насыщенности : 4:2:0
Битовая глубина : 8 бит
Тип развёртки : Прогрессивная
Бит/(Пиксели*Кадры) : 0.112
Размер потока : 58,9 Мбайт (95%)
Дата пометки : UTC 2011-01-03 18:35:48

Аудио
Идентификатор : 2
Формат : AAC
Формат/Информация : Advanced Audio Codec
Профиль формата : LC
Идентификатор кодека : 40
Продолжительность : 3 м. 10 с.
Вид битрейта : Переменный
Битрейт : 128 Кбит/сек
Максимальный битрейт : 208 Кбит/сек
Каналы : 2 канала
Расположение каналов : Front: L R
Частота : 44,1 КГц
Метод сжатия : С потерями
Размер потока : 2,91 Мбайт (5%)
Заголовок : (C) 2007 Google Inc. v08.13.2007.
Дата кодирования : UTC 2011-01-03 18:35:46
Дата пометки : UTC 2011-01-03 18:35:48

Общее
Полное имя : D:\Загрузка\Reflex на ELLO\Reflex - I lose my mind 2000 (Live Олимпийский).mp4
Формат : MPEG-4
Профиль формата : Base Media / Version 2
Идентификатор кодека : mp42
Размер файла : 97,3 Мбайт
Продолжительность : 4 м. 25 с.
Режим общего битрейта : Переменный
Общий поток : 3072 Кбит/сек
Дата кодирования : UTC 2011-01-03 19:20:11
Дата пометки : UTC 2011-01-03 19:20:11
gsst : 0
gstd : 265600
gssd : B4A7DA887HH1333311899491277
gshh : o-o.preferred.svo01s01.v7.lscache2.c.youtube.com

Видео
Идентификатор : 1
Формат : AVC
Формат/Информация : Advanced Video Codec
Профиль формата : High@L3.1
Параметр CABAC формата : Да
Параметр ReFrames формата : 1 кадр
Идентификатор кодека : avc1
Идентификатор кодека/Информация : Advanced Video Coding
Продолжительность : 4 м. 25 с.
Битрейт : 2939 Кбит/сек
Максимальный битрейт : 5103 Кбит/сек
Ширина : 1280 пикселей
Высота : 720 пикселей
Соотношение сторон : 16:9
Режим частоты кадров : Постоянный
Частота кадров : 25,000 кадров/сек
Цветовое пространство : YUV
Субдискретизация насыщенности : 4:2:0
Битовая глубина : 8 бит
Тип развёртки : Прогрессивная
Бит/(Пиксели*Кадры) : 0.128
Размер потока : 93,1 Мбайт (96%)
Дата пометки : UTC 2011-01-03 19:20:16

Аудио
Идентификатор : 2
Формат : AAC
Формат/Информация : Advanced Audio Codec
Профиль формата : LC
Идентификатор кодека : 40
Продолжительность : 4 м. 25 с.
Вид битрейта : Переменный
Битрейт : 128 Кбит/сек
Максимальный битрейт : 147 Кбит/сек
Каналы : 2 канала
Расположение каналов : Front: L R
Частота : 44,1 КГц
Метод сжатия : С потерями
Размер потока : 4,05 Мбайт (4%)
Заголовок : (C) 2007 Google Inc. v08.13.2007.
Дата кодирования : UTC 2011-01-03 19:20:14
Дата пометки : UTC 2011-01-03 19:20:16

Общее
Полное имя : D:\Загрузка\Reflex на ELLO\Reflex - Non Stop (English Version).mp4
Формат : MPEG-4
Профиль формата : Base Media / Version 2
Идентификатор кодека : mp42
Размер файла : 16,0 Мбайт
Продолжительность : 3 м. 0 с.
Режим общего битрейта : Переменный
Общий поток : 748 Кбит/сек
Дата кодирования : UTC 2010-11-22 06:42:26
Дата пометки : UTC 2010-11-22 06:42:26
gsst : 0
gstd : 180061
gssd : BADC23A22HH1333311183981873
gshh : o-o.preferred.svo01s01.v14.lscache7.c.youtube.com

Видео
Идентификатор : 1
Формат : AVC
Формат/Информация : Advanced Video Codec
Профиль формата : Baseline@L3.0
Параметр CABAC формата : Нет
Параметр ReFrames формата : 1 кадр
Параметр GOP формата : M=1, N=30
Идентификатор кодека : avc1
Идентификатор кодека/Информация : Advanced Video Coding
Продолжительность : 3 м. 0 с.
Битрейт : 645 Кбит/сек
Максимальный битрейт : 1443 Кбит/сек
Ширина : 568 пикселей
Высота : 360 пикселей
Соотношение сторон : 1,578
Режим частоты кадров : Переменный
Частота кадров : 29,970 кадров/сек
Минимальная частота кадров : 29,412 кадров/сек
Максимальная частота кадров : 200,000 кадров/сек
Цветовое пространство : YUV
Субдискретизация насыщенности : 4:2:0
Битовая глубина : 8 бит
Тип развёртки : Прогрессивная
Бит/(Пиксели*Кадры) : 0.105
Размер потока : 13,8 Мбайт (86%)
Дата пометки : UTC 2010-11-22 06:42:26

Аудио
Идентификатор : 2
Формат : AAC
Формат/Информация : Advanced Audio Codec
Профиль формата : LC
Идентификатор кодека : 40
Продолжительность : 3 м. 0 с.
Вид битрейта : Переменный
Битрейт : 96,0 Кбит/сек
Максимальный битрейт : 156 Кбит/сек
Каналы : 2 канала
Расположение каналов : Front: L R
Частота : 44,1 КГц
Метод сжатия : С потерями
Размер потока : 2,06 Мбайт (13%)
Заголовок : (C) 2007 Google Inc. v08.13.2007.
Дата кодирования : UTC 2010-11-22 06:42:26
Дата пометки : UTC 2010-11-22 06:42:26

Общее
Полное имя : D:\Загрузка\Reflex на ELLO\Reflex - Белая метелица.mp4
Формат : MPEG-4
Профиль формата : Base Media / Version 2
Идентификатор кодека : mp42
Размер файла : 22,3 Мбайт
Продолжительность : 1 м. 58 с.
Режим общего битрейта : Переменный
Общий поток : 1578 Кбит/сек
Дата кодирования : UTC 2010-12-21 23:50:23
Дата пометки : UTC 2010-12-21 23:50:23
gsst : 0
gstd : 118280
gssd : B4A7DA80BHH1333310907655999
gshh : o-o.preferred.svo01s01.v11.lscache3.c.youtube.com

Видео
Идентификатор : 1
Формат : AVC
Формат/Информация : Advanced Video Codec
Профиль формата : High@L3.1
Параметр CABAC формата : Да
Параметр ReFrames формата : 1 кадр
Идентификатор кодека : avc1
Идентификатор кодека/Информация : Advanced Video Coding
Продолжительность : 1 м. 58 с.
Битрейт : 1445 Кбит/сек
Максимальный битрейт : 3325 Кбит/сек
Ширина : 1280 пикселей
Высота : 720 пикселей
Соотношение сторон : 16:9
Режим частоты кадров : Постоянный
Частота кадров : 25,000 кадров/сек
Цветовое пространство : YUV
Субдискретизация насыщенности : 4:2:0
Битовая глубина : 8 бит
Тип развёртки : Прогрессивная
Бит/(Пиксели*Кадры) : 0.063
Размер потока : 20,4 Мбайт (92%)
Дата пометки : UTC 2010-12-21 23:50:24

Аудио
Идентификатор : 2
Формат : AAC
Формат/Информация : Advanced Audio Codec
Профиль формата : LC
Идентификатор кодека : 40
Продолжительность : 1 м. 58 с.
Вид битрейта : Переменный
Битрейт : 128 Кбит/сек
Максимальный битрейт : 151 Кбит/сек
Каналы : 2 канала
Расположение каналов : Front: L R
Частота : 44,1 КГц
Метод сжатия : С потерями
Размер потока : 1,80 Мбайт (8%)
Заголовок : (C) 2007 Google Inc. v08.13.2007.
Дата кодирования : UTC 2010-12-21 23:50:24
Дата пометки : UTC 2010-12-21 23:50:24

Общее
Полное имя : D:\Загрузка\Reflex на ELLO\Reflex - Встречай новый день.mp4
Формат : MPEG-4
Профиль формата : Base Media / Version 2
Идентификатор кодека : mp42
Размер файла : 22,2 Мбайт
Продолжительность : 4 м. 7 с.
Режим общего битрейта : Переменный
Общий поток : 754 Кбит/сек
Дата кодирования : UTC 2011-02-07 09:09:37
Дата пометки : UTC 2011-02-07 09:09:37
gsst : 0
gstd : 247200
gssd : BADC23A21HH1333312275049338
gshh : o-o.preferred.svo01s01.v1.lscache7.c.youtube.com

Видео
Идентификатор : 1
Формат : AVC
Формат/Информация : Advanced Video Codec
Профиль формата : Baseline@L3.0
Параметр CABAC формата : Нет
Параметр ReFrames формата : 1 кадр
Параметр GOP формата : M=1, N=30
Идентификатор кодека : avc1
Идентификатор кодека/Информация : Advanced Video Coding
Продолжительность : 4 м. 7 с.
Битрейт : 653 Кбит/сек
Максимальный битрейт : 1786 Кбит/сек
Ширина : 640 пикселей
Высота : 360 пикселей
Соотношение сторон : 16:9
Режим частоты кадров : Постоянный
Частота кадров : 25,000 кадров/сек
Цветовое пространство : YUV
Субдискретизация насыщенности : 4:2:0
Битовая глубина : 8 бит
Тип развёртки : Прогрессивная
Бит/(Пиксели*Кадры) : 0.113
Размер потока : 19,3 Мбайт (87%)
Дата пометки : UTC 2011-02-07 09:09:39

Аудио
Идентификатор : 2
Формат : AAC
Формат/Информация : Advanced Audio Codec
Профиль формата : LC
Идентификатор кодека : 40
Продолжительность : 4 м. 7 с.
Вид битрейта : Переменный
Битрейт : 96,0 Кбит/сек
Максимальный битрейт : 149 Кбит/сек
Каналы : 2 канала
Расположение каналов : Front: L R
Частота : 44,1 КГц
Метод сжатия : С потерями
Размер потока : 2,81 Мбайт (13%)
Заголовок : (C) 2007 Google Inc. v08.13.2007.
Дата кодирования : UTC 2011-02-07 09:09:38
Дата пометки : UTC 2011-02-07 09:09:39

Общее
Полное имя : D:\Загрузка\Reflex на ELLO\Reflex - Жесткое диско.mp4
Формат : MPEG-4
Профиль формата : Base Media / Version 2
Идентификатор кодека : mp42
Размер файла : 63,5 Мбайт
Продолжительность : 3 м. 55 с.
Режим общего битрейта : Переменный
Общий поток : 2260 Кбит/сек
Дата кодирования : UTC 2010-11-24 06:57:10
Дата пометки : UTC 2010-11-24 06:57:10
gsst : 0
gstd : 235760
gssd : B4A7DA305HH1333311076918318
gshh : o-o.preferred.svo01s01.v10.lscache2.c.youtube.com

Видео
Идентификатор : 1
Формат : AVC
Формат/Информация : Advanced Video Codec
Профиль формата : High@L3.1
Параметр CABAC формата : Да
Параметр ReFrames формата : 1 кадр
Параметр GOP формата : M=1, N=30
Идентификатор кодека : avc1
Идентификатор кодека/Информация : Advanced Video Coding
Продолжительность : 3 м. 55 с.
Битрейт : 2128 Кбит/сек
Максимальный битрейт : 5202 Кбит/сек
Ширина : 1280 пикселей
Высота : 720 пикселей
Соотношение сторон : 16:9
Режим частоты кадров : Постоянный
Частота кадров : 25,000 кадров/сек
Цветовое пространство : YUV
Субдискретизация насыщенности : 4:2:0
Битовая глубина : 8 бит
Тип развёртки : Прогрессивная
Бит/(Пиксели*Кадры) : 0.092
Размер потока : 59,8 Мбайт (94%)
Дата пометки : UTC 2010-11-24 06:57:16

Аудио
Идентификатор : 2
Формат : AAC
Формат/Информация : Advanced Audio Codec
Профиль формата : LC
Идентификатор кодека : 40
Продолжительность : 3 м. 55 с.
Вид битрейта : Переменный
Битрейт : 128 Кбит/сек
Максимальный битрейт : 208 Кбит/сек
Каналы : 2 канала
Расположение каналов : Front: L R
Частота : 44,1 КГц
Метод сжатия : С потерями
Размер потока : 3,60 Мбайт (6%)
Заголовок : (C) 2007 Google Inc. v08.13.2007.
Дата кодирования : UTC 2010-11-24 06:57:13
Дата пометки : UTC 2010-11-24 06:57:16

Общее
Полное имя : D:\Загрузка\Reflex на ELLO\Reflex - Может быть показалось (Симфоническая).mp4
Формат : MPEG-4
Профиль формата : Base Media / Version 2
Идентификатор кодека : mp42
Размер файла : 64,2 Мбайт
Продолжительность : 3 м. 36 с.
Режим общего битрейта : Переменный
Общий поток : 2481 Кбит/сек
Дата кодирования : UTC 2011-01-03 19:25:48
Дата пометки : UTC 2011-01-03 19:25:48
gsst : 0
gstd : 216960
gssd : B4A7DA882HH1333311838255247
gshh : o-o.preferred.svo01s01.v14.lscache3.c.youtube.com

Видео
Идентификатор : 1
Формат : AVC
Формат/Информация : Advanced Video Codec
Профиль формата : High@L3.1
Параметр CABAC формата : Да
Параметр ReFrames формата : 1 кадр
Параметр GOP формата : M=1, N=30
Идентификатор кодека : avc1
Идентификатор кодека/Информация : Advanced Video Coding
Продолжительность : 3 м. 36 с.
Битрейт : 2348 Кбит/сек
Максимальный битрейт : 4204 Кбит/сек
Ширина : 1280 пикселей
Высота : 720 пикселей
Соотношение сторон : 16:9
Режим частоты кадров : Постоянный
Частота кадров : 25,000 кадров/сек
Цветовое пространство : YUV
Субдискретизация насыщенности : 4:2:0
Битовая глубина : 8 бит
Тип развёртки : Прогрессивная
Бит/(Пиксели*Кадры) : 0.102
Размер потока : 60,7 Мбайт (95%)
Дата пометки : UTC 2011-01-03 19:25:51

Аудио
Идентификатор : 2
Формат : AAC
Формат/Информация : Advanced Audio Codec
Профиль формата : LC
Идентификатор кодека : 40
Продолжительность : 3 м. 36 с.
Вид битрейта : Переменный
Битрейт : 128 Кбит/сек
Максимальный битрейт : 180 Кбит/сек
Каналы : 2 канала
Расположение каналов : Front: L R
Частота : 44,1 КГц
Метод сжатия : С потерями
Размер потока : 3,31 Мбайт (5%)
Заголовок : (C) 2007 Google Inc. v08.13.2007.
Дата кодирования : UTC 2011-01-03 19:25:50
Дата пометки : UTC 2011-01-03 19:25:51

Общее
Полное имя : D:\Загрузка\Reflex на ELLO\Reflex - Научи любить.mp4
Формат : MPEG-4
Профиль формата : Base Media / Version 2
Идентификатор кодека : mp42
Размер файла : 77,2 Мбайт
Продолжительность : 4 м. 4 с.
Режим общего битрейта : Переменный
Общий поток : 2646 Кбит/сек
Дата кодирования : UTC 2010-11-24 07:24:43
Дата пометки : UTC 2010-11-24 07:24:43
gsst : 0
gstd : 244760
gssd : B4A7DA8A5HH1333310931117917
gshh : o-o.preferred.svo01s01.v5.lscache8.c.youtube.com

Видео
Идентификатор : 1
Формат : AVC
Формат/Информация : Advanced Video Codec
Профиль формата : High@L3.1
Параметр CABAC формата : Да
Параметр ReFrames формата : 1 кадр
Идентификатор кодека : avc1
Идентификатор кодека/Информация : Advanced Video Coding
Продолжительность : 4 м. 4 с.
Битрейт : 2513 Кбит/сек
Максимальный битрейт : 4809 Кбит/сек
Ширина : 1280 пикселей
Высота : 720 пикселей
Соотношение сторон : 16:9
Режим частоты кадров : Постоянный
Частота кадров : 25,000 кадров/сек
Цветовое пространство : YUV
Субдискретизация насыщенности : 4:2:0
Битовая глубина : 8 бит
Тип развёртки : Прогрессивная
Бит/(Пиксели*Кадры) : 0.109
Размер потока : 73,3 Мбайт (95%)
Дата пометки : UTC 2010-11-24 07:24:48

Аудио
Идентификатор : 2
Формат : AAC
Формат/Информация : Advanced Audio Codec
Профиль формата : LC
Идентификатор кодека : 40
Продолжительность : 4 м. 4 с.
Вид битрейта : Переменный
Битрейт : 128 Кбит/сек
Максимальный битрейт : 155 Кбит/сек
Каналы : 2 канала
Расположение каналов : Front: L R
Частота : 44,1 КГц
Метод сжатия : С потерями
Размер потока : 3,73 Мбайт (5%)
Заголовок : (C) 2007 Google Inc. v08.13.2007.
Дата кодирования : UTC 2010-11-24 07:24:46
Дата пометки : UTC 2010-11-24 07:24:48

Общее
Полное имя : D:\Загрузка\Reflex на ELLO\Reflex - Падали звезды.mp4
Формат : MPEG-4
Профиль формата : Base Media / Version 2
Идентификатор кодека : mp42
Размер файла : 44,7 Мбайт
Продолжительность : 3 м. 53 с.
Режим общего битрейта : Переменный
Общий поток : 1604 Кбит/сек
Дата кодирования : UTC 2010-11-24 07:02:45
Дата пометки : UTC 2010-11-24 07:02:45
gsst : 0
gstd : 233800
gssd : B4A7DA8ACHH1333311037297532
gshh : o-o.preferred.svo01s01.v24.lscache5.c.youtube.com

Видео
Идентификатор : 1
Формат : AVC
Формат/Информация : Advanced Video Codec
Профиль формата : High@L3.1
Параметр CABAC формата : Да
Параметр ReFrames формата : 1 кадр
Идентификатор кодека : avc1
Идентификатор кодека/Информация : Advanced Video Coding
Продолжительность : 3 м. 53 с.
Битрейт : 1471 Кбит/сек
Максимальный битрейт : 3808 Кбит/сек
Ширина : 1280 пикселей
Высота : 720 пикселей
Соотношение сторон : 16:9
Режим частоты кадров : Постоянный
Частота кадров : 25,000 кадров/сек
Цветовое пространство : YUV
Субдискретизация насыщенности : 4:2:0
Битовая глубина : 8 бит
Тип развёртки : Прогрессивная
Бит/(Пиксели*Кадры) : 0.064
Размер потока : 41,0 Мбайт (92%)
Дата пометки : UTC 2010-11-24 07:02:50

Аудио
Идентификатор : 2
Формат : AAC
Формат/Информация : Advanced Audio Codec
Профиль формата : LC
Идентификатор кодека : 40
Продолжительность : 3 м. 53 с.
Вид битрейта : Переменный
Битрейт : 127 Кбит/сек
Максимальный битрейт : 175 Кбит/сек
Каналы : 2 канала
Расположение каналов : Front: L R
Частота : 44,1 КГц
Метод сжатия : С потерями
Размер потока : 3,55 Мбайт (8%)
Заголовок : (C) 2007 Google Inc. v08.13.2007.
Дата кодирования : UTC 2010-11-24 07:02:47
Дата пометки : UTC 2010-11-24 07:02:50

Общее
Полное имя : D:\Загрузка\Reflex на ELLO\Reflex - Половинка.mp4
Формат : MPEG-4
Профиль формата : Base Media / Version 2
Идентификатор кодека : mp42
Размер файла : 49,2 Мбайт
Продолжительность : 3 м. 40 с.
Режим общего битрейта : Переменный
Общий поток : 1876 Кбит/сек
Дата кодирования : UTC 2010-11-24 07:16:17
Дата пометки : UTC 2010-11-24 07:16:17
gsst : 0
gstd : 220080
gssd : B4A7DA884HH1333310996826923
gshh : o-o.preferred.svo01s01.v16.lscache4.c.youtube.com

Видео
Идентификатор : 1
Формат : AVC
Формат/Информация : Advanced Video Codec
Профиль формата : High@L3.1
Параметр CABAC формата : Да
Параметр ReFrames формата : 1 кадр
Параметр GOP формата : M=1, N=30
Идентификатор кодека : avc1
Идентификатор кодека/Информация : Advanced Video Coding
Продолжительность : 3 м. 40 с.
Битрейт : 1743 Кбит/сек
Максимальный битрейт : 4933 Кбит/сек
Ширина : 1280 пикселей
Высота : 720 пикселей
Соотношение сторон : 16:9
Режим частоты кадров : Постоянный
Частота кадров : 25,000 кадров/сек
Цветовое пространство : YUV
Субдискретизация насыщенности : 4:2:0
Битовая глубина : 8 бит
Тип развёртки : Прогрессивная
Бит/(Пиксели*Кадры) : 0.076
Размер потока : 45,7 Мбайт (93%)
Дата пометки : UTC 2010-11-24 07:16:22

Аудио
Идентификатор : 2
Формат : AAC
Формат/Информация : Advanced Audio Codec
Профиль формата : LC
Идентификатор кодека : 40
Продолжительность : 3 м. 40 с.
Вид битрейта : Переменный
Битрейт : 128 Кбит/сек
Максимальный битрейт : 200 Кбит/сек
Каналы : 2 канала
Расположение каналов : Front: L R
Частота : 44,1 КГц
Метод сжатия : С потерями
Размер потока : 3,35 Мбайт (7%)
Заголовок : (C) 2007 Google Inc. v08.13.2007.
Дата кодирования : UTC 2010-11-24 07:16:19
Дата пометки : UTC 2010-11-24 07:16:22

Общее
Полное имя : D:\Загрузка\Reflex на ELLO\Reflex - Сколько лет сколько зим.mp4
Формат : MPEG-4
Профиль формата : Base Media / Version 2
Идентификатор кодека : mp42
Размер файла : 66,7 Мбайт
Продолжительность : 3 м. 57 с.
Режим общего битрейта : Переменный
Общий поток : 2361 Кбит/сек
Дата кодирования : UTC 2011-02-07 09:36:55
Дата пометки : UTC 2011-02-07 09:36:55
gsst : 0
gstd : 237000
gssd : BADC23063HH1333312207619596
gshh : o-o.preferred.svo01s01.v23.lscache7.c.youtube.com

Видео
Идентификатор : 1
Формат : AVC
Формат/Информация : Advanced Video Codec
Профиль формата : High@L3.1
Параметр CABAC формата : Да
Параметр ReFrames формата : 1 кадр
Идентификатор кодека : avc1
Идентификатор кодека/Информация : Advanced Video Coding
Продолжительность : 3 м. 57 с.
Битрейт : 2229 Кбит/сек
Максимальный битрейт : 4941 Кбит/сек
Ширина : 1280 пикселей
Высота : 720 пикселей
Соотношение сторон : 16:9
Режим частоты кадров : Постоянный
Частота кадров : 25,000 кадров/сек
Цветовое пространство : YUV
Субдискретизация насыщенности : 4:2:0
Битовая глубина : 8 бит
Тип развёртки : Прогрессивная
Бит/(Пиксели*Кадры) : 0.097
Размер потока : 63,0 Мбайт (94%)
Дата пометки : UTC 2011-02-07 09:36:59

Аудио
Идентификатор : 2
Формат : AAC
Формат/Информация : Advanced Audio Codec
Профиль формата : LC
Идентификатор кодека : 40
Продолжительность : 3 м. 56 с.
Вид битрейта : Переменный
Битрейт : 128 Кбит/сек
Максимальный битрейт : 231 Кбит/сек
Каналы : 2 канала
Расположение каналов : Front: L R
Частота : 44,1 КГц
Метод сжатия : С потерями
Размер потока : 3,61 Мбайт (5%)
Заголовок : (C) 2007 Google Inc. v08.13.2007.
Дата кодирования : UTC 2011-02-07 09:36:57
Дата пометки : UTC 2011-02-07 09:36:59

Общее
Полное имя : D:\Загрузка\Reflex на ELLO\Reflex - Сойти с Ума (Live).mp4
Формат : MPEG-4
Профиль формата : Base Media / Version 2
Идентификатор кодека : mp42
Размер файла : 97,8 Мбайт
Продолжительность : 4 м. 25 с.
Режим общего битрейта : Переменный
Общий поток : 3094 Кбит/сек
Дата кодирования : UTC 2010-12-24 09:54:16
Дата пометки : UTC 2010-12-24 09:54:16
gsst : 0
gstd : 265200
gssd : BADC23044HH1333311430861413
gshh : o-o.preferred.svo01s01.v24.lscache5.c.youtube.com

Видео
Идентификатор : 1
Формат : AVC
Формат/Информация : Advanced Video Codec
Профиль формата : High@L3.1
Параметр CABAC формата : Да
Параметр ReFrames формата : 1 кадр
Идентификатор кодека : avc1
Идентификатор кодека/Информация : Advanced Video Coding
Продолжительность : 4 м. 25 с.
Битрейт : 2962 Кбит/сек
Максимальный битрейт : 5440 Кбит/сек
Ширина : 1280 пикселей
Высота : 720 пикселей
Соотношение сторон : 16:9
Режим частоты кадров : Постоянный
Частота кадров : 25,000 кадров/сек
Цветовое пространство : YUV
Субдискретизация насыщенности : 4:2:0
Битовая глубина : 8 бит
Тип развёртки : Прогрессивная
Бит/(Пиксели*Кадры) : 0.129
Размер потока : 93,6 Мбайт (96%)
Дата пометки : UTC 2010-12-24 09:54:24

Аудио
Идентификатор : 2
Формат : AAC
Формат/Информация : Advanced Audio Codec
Профиль формата : LC
Идентификатор кодека : 40
Продолжительность : 4 м. 25 с.
Вид битрейта : Переменный
Битрейт : 128 Кбит/сек
Максимальный битрейт : 207 Кбит/сек
Каналы : 2 канала
Расположение каналов : Front: L R
Частота : 44,1 КГц
Метод сжатия : С потерями
Размер потока : 4,05 Мбайт (4%)
Заголовок : (C) 2007 Google Inc. v08.13.2007.
Дата кодирования : UTC 2010-12-24 09:54:20
Дата пометки : UTC 2010-12-24 09:54:24

Общее
Полное имя : D:\Загрузка\Reflex на ELLO\Reflex - Сойти с ума.mp4
Формат : MPEG-4
Профиль формата : Base Media / Version 2
Идентификатор кодека : mp42
Размер файла : 14,9 Мбайт
Продолжительность : 3 м. 58 с.
Режим общего битрейта : Переменный
Общий поток : 524 Кбит/сек
Дата кодирования : UTC 2010-11-24 06:33:27
Дата пометки : UTC 2010-11-24 06:33:27
gsst : 0
gstd : 238600
gssd : B4A7DA884HH1333311198024429
gshh : o-o.preferred.svo01s01.v4.lscache2.c.youtube.com

Видео
Идентификатор : 1
Формат : AVC
Формат/Информация : Advanced Video Codec
Профиль формата : Baseline@L2.1
Параметр CABAC формата : Нет
Параметр ReFrames формата : 1 кадр
Параметр GOP формата : M=1, N=30
Идентификатор кодека : avc1
Идентификатор кодека/Информация : Advanced Video Coding
Продолжительность : 3 м. 58 с.
Битрейт : 423 Кбит/сек
Максимальный битрейт : 1018 Кбит/сек
Ширина : 450 пикселей
Высота : 360 пикселей
Соотношение сторон : 5:4
Режим частоты кадров : Постоянный
Частота кадров : 25,000 кадров/сек
Цветовое пространство : YUV
Субдискретизация насыщенности : 4:2:0
Битовая глубина : 8 бит
Тип развёртки : Прогрессивная
Бит/(Пиксели*Кадры) : 0.105
Размер потока : 12,0 Мбайт (81%)
Дата пометки : UTC 2010-11-24 06:33:30

Аудио
Идентификатор : 2
Формат : AAC
Формат/Информация : Advanced Audio Codec
Профиль формата : LC
Идентификатор кодека : 40
Продолжительность : 3 м. 58 с.
Вид битрейта : Переменный
Битрейт : 96,0 Кбит/сек
Максимальный битрейт : 138 Кбит/сек
Каналы : 2 канала
Расположение каналов : Front: L R
Частота : 44,1 КГц
Метод сжатия : С потерями
Размер потока : 2,73 Мбайт (18%)
Заголовок : (C) 2007 Google Inc. v08.13.2007.
Дата кодирования : UTC 2010-11-24 06:33:28
Дата пометки : UTC 2010-11-24 06:33:30

Общее
Полное имя : D:\Загрузка\Reflex на ELLO\Reflex - Танцы.mp4
Формат : MPEG-4
Профиль формата : Base Media / Version 2
Идентификатор кодека : mp42
Размер файла : 82,0 Мбайт
Продолжительность : 3 м. 54 с.
Режим общего битрейта : Переменный
Общий поток : 2927 Кбит/сек
Дата кодирования : UTC 2010-12-24 09:46:47
Дата пометки : UTC 2010-12-24 09:46:47
gsst : 0
gstd : 234920
gssd : B4A7DA888HH1333311560095510
gshh : o-o.preferred.svo01s01.v8.lscache3.c.youtube.com

Видео
Идентификатор : 1
Формат : AVC
Формат/Информация : Advanced Video Codec
Профиль формата : High@L3.1
Параметр CABAC формата : Да
Параметр ReFrames формата : 1 кадр
Параметр GOP формата : M=1, N=30
Идентификатор кодека : avc1
Идентификатор кодека/Информация : Advanced Video Coding
Продолжительность : 3 м. 54 с.
Битрейт : 2794 Кбит/сек
Максимальный битрейт : 5594 Кбит/сек
Ширина : 1280 пикселей
Высота : 720 пикселей
Соотношение сторон : 16:9
Режим частоты кадров : Постоянный
Частота кадров : 25,000 кадров/сек
Цветовое пространство : YUV
Субдискретизация насыщенности : 4:2:0
Битовая глубина : 8 бит
Тип развёртки : Прогрессивная
Бит/(Пиксели*Кадры) : 0.121
Размер потока : 78,2 Мбайт (95%)
Дата пометки : UTC 2010-12-24 09:46:50

Аудио
Идентификатор : 2
Формат : AAC
Формат/Информация : Advanced Audio Codec
Профиль формата : LC
Идентификатор кодека : 40
Продолжительность : 3 м. 54 с.
Вид битрейта : Переменный
Битрейт : 128 Кбит/сек
Максимальный битрейт : 146 Кбит/сек
Каналы : 2 канала
Расположение каналов : Front: L R
Частота : 44,1 КГц
Метод сжатия : С потерями
Размер потока : 3,58 Мбайт (4%)
Заголовок : (C) 2007 Google Inc. v08.13.2007.
Дата кодирования : UTC 2010-12-24 09:46:49
Дата пометки : UTC 2010-12-24 09:46:50

Общее
Полное имя : D:\Загрузка\Reflex на ELLO\Reflex - Это Новый Год.mp4
Формат : MPEG-4
Профиль формата : Base Media / Version 2
Идентификатор кодека : mp42
Размер файла : 63,7 Мбайт
Продолжительность : 3 м. 45 с.
Режим общего битрейта : Переменный
Общий поток : 2373 Кбит/сек
Дата кодирования : UTC 2011-01-03 18:46:32
Дата пометки : UTC 2011-01-03 18:46:32
gsst : 0
gstd : 225280
gssd : B4A7DA809HH1333312099082312
gshh : o-o.preferred.svo01s01.v21.lscache2.c.youtube.com

Видео
Идентификатор : 1
Формат : AVC
Формат/Информация : Advanced Video Codec
Профиль формата : High@L3.1
Параметр CABAC формата : Да
Параметр ReFrames формата : 1 кадр
Параметр GOP формата : M=1, N=30
Идентификатор кодека : avc1
Идентификатор кодека/Информация : Advanced Video Coding
Продолжительность : 3 м. 45 с.
Битрейт : 2240 Кбит/сек
Максимальный битрейт : 4527 Кбит/сек
Ширина : 1280 пикселей
Высота : 720 пикселей
Соотношение сторон : 16:9
Режим частоты кадров : Постоянный
Частота кадров : 25,000 кадров/сек
Цветовое пространство : YUV
Субдискретизация насыщенности : 4:2:0
Битовая глубина : 8 бит
Тип развёртки : Прогрессивная
Бит/(Пиксели*Кадры) : 0.097
Размер потока : 60,2 Мбайт (94%)
Дата пометки : UTC 2011-01-03 18:46:35

Аудио
Идентификатор : 2
Формат : AAC
Формат/Информация : Advanced Audio Codec
Профиль формата : LC
Идентификатор кодека : 40
Продолжительность : 3 м. 45 с.
Вид битрейта : Переменный
Битрейт : 128 Кбит/сек
Максимальный битрейт : 156 Кбит/сек
Каналы : 2 канала
Расположение каналов : Front: L R
Частота : 44,1 КГц
Метод сжатия : С потерями
Размер потока : 3,44 Мбайт (5%)
Заголовок : (C) 2007 Google Inc. v08.13.2007.
Дата кодирования : UTC 2011-01-03 18:46:34
Дата пометки : UTC 2011-01-03 18:46:35

Общее
Полное имя : D:\Загрузка\Reflex на ELLO\Reflex - Я разбила небо (Версия 2).mp4
Формат : MPEG-4
Профиль формата : Base Media / Version 2
Идентификатор кодека : mp42
Размер файла : 47,6 Мбайт
Продолжительность : 3 м. 27 с.
Режим общего битрейта : Переменный
Общий поток : 1922 Кбит/сек
Дата кодирования : UTC 2010-12-24 09:00:44
Дата пометки : UTC 2010-12-24 09:00:44
gsst : 0
gstd : 207600
gssd : B4A7DA807HH1333311235839759
gshh : o-o.preferred.svo01s01.v7.lscache4.c.youtube.com

Видео
Идентификатор : 1
Формат : AVC
Формат/Информация : Advanced Video Codec
Профиль формата : High@L3.1
Параметр CABAC формата : Да
Параметр ReFrames формата : 1 кадр
Идентификатор кодека : avc1
Идентификатор кодека/Информация : Advanced Video Coding
Продолжительность : 3 м. 27 с.
Битрейт : 1789 Кбит/сек
Максимальный битрейт : 4103 Кбит/сек
Ширина : 1280 пикселей
Высота : 720 пикселей
Соотношение сторон : 16:9
Режим частоты кадров : Постоянный
Частота кадров : 25,000 кадров/сек
Цветовое пространство : YUV
Субдискретизация насыщенности : 4:2:0
Битовая глубина : 8 бит
Тип развёртки : Прогрессивная
Бит/(Пиксели*Кадры) : 0.078
Размер потока : 44,3 Мбайт (93%)
Дата пометки : UTC 2010-12-24 09:00:49

Аудио
Идентификатор : 2
Формат : AAC
Формат/Информация : Advanced Audio Codec
Профиль формата : LC
Идентификатор кодека : 40
Продолжительность : 3 м. 27 с.
Вид битрейта : Переменный
Битрейт : 128 Кбит/сек
Максимальный битрейт : 150 Кбит/сек
Каналы : 2 канала
Расположение каналов : Front: L R
Частота : 44,1 КГц
Метод сжатия : С потерями
Размер потока : 3,17 Мбайт (7%)
Заголовок : (C) 2007 Google Inc. v08.13.2007.
Дата кодирования : UTC 2010-12-24 09:00:47
Дата пометки : UTC 2010-12-24 09:00:49

Общее
Полное имя : D:\Загрузка\Reflex на ELLO\Reflex - Я тебя всегда буду ждать.mp4
Формат : MPEG-4
Профиль формата : Base Media / Version 2
Идентификатор кодека : mp42
Размер файла : 92,1 Мбайт
Продолжительность : 4 м. 21 с.
Режим общего битрейта : Переменный
Общий поток : 2953 Кбит/сек
Дата кодирования : UTC 2010-12-24 08:54:37
Дата пометки : UTC 2010-12-24 08:54:37
gsst : 0
gstd : 261520
gssd : B4A7DA8C7HH1333311350312528
gshh : o-o.preferred.svo01s01.v7.lscache1.c.youtube.com

Видео
Идентификатор : 1
Формат : AVC
Формат/Информация : Advanced Video Codec
Профиль формата : High@L3.1
Параметр CABAC формата : Да
Параметр ReFrames формата : 1 кадр
Идентификатор кодека : avc1
Идентификатор кодека/Информация : Advanced Video Coding
Продолжительность : 4 м. 21 с.
Битрейт : 2821 Кбит/сек
Максимальный битрейт : 6399 Кбит/сек
Ширина : 1280 пикселей
Высота : 720 пикселей
Соотношение сторон : 16:9
Режим частоты кадров : Постоянный
Частота кадров : 25,000 кадров/сек
Цветовое пространство : YUV
Субдискретизация насыщенности : 4:2:0
Битовая глубина : 8 бит
Тип развёртки : Прогрессивная
Бит/(Пиксели*Кадры) : 0.122
Размер потока : 87,9 Мбайт (96%)
Дата пометки : UTC 2010-12-24 08:54:43

Аудио
Идентификатор : 2
Формат : AAC
Формат/Информация : Advanced Audio Codec
Профиль формата : LC
Идентификатор кодека : 40
Продолжительность : 4 м. 21 с.
Вид битрейта : Переменный
Битрейт : 128 Кбит/сек
Максимальный битрейт : 228 Кбит/сек
Каналы : 2 канала
Расположение каналов : Front: L R
Частота : 44,1 КГц
Метод сжатия : С потерями
Размер потока : 3,99 Мбайт (4%)
Заголовок : (C) 2007 Google Inc. v08.13.2007.
Дата кодирования : UTC 2010-12-24 08:54:40
Дата пометки : UTC 2010-12-24 08:54:43

Общее
Полное имя : D:\Загрузка\Reflex на ELLO\Reflex и Ирина Нельсон - Селяви.mp4
Формат : MPEG-4
Профиль формата : Base Media / Version 2
Идентификатор кодека : mp42
Размер файла : 34,9 Мбайт
Продолжительность : 2 м. 57 с.
Режим общего битрейта : Переменный
Общий поток : 1647 Кбит/сек
Дата кодирования : UTC 2010-11-24 06:40:30
Дата пометки : UTC 2010-11-24 06:40:30
gsst : 0
gstd : 177680
gssd : B4A7DA363HH1333311147524640
gshh : o-o.preferred.svo01s01.v13.lscache8.c.youtube.com

Видео
Идентификатор : 1
Формат : AVC
Формат/Информация : Advanced Video Codec
Профиль формата : High@L3.1
Параметр CABAC формата : Да
Параметр ReFrames формата : 1 кадр
Идентификатор кодека : avc1
Идентификатор кодека/Информация : Advanced Video Coding
Продолжительность : 2 м. 57 с.
Битрейт : 1515 Кбит/сек
Максимальный битрейт : 3147 Кбит/сек
Ширина : 1280 пикселей
Высота : 720 пикселей
Соотношение сторон : 16:9
Режим частоты кадров : Постоянный
Частота кадров : 25,000 кадров/сек
Цветовое пространство : YUV
Субдискретизация насыщенности : 4:2:0
Битовая глубина : 8 бит
Тип развёртки : Прогрессивная
Бит/(Пиксели*Кадры) : 0.066
Размер потока : 32,1 Мбайт (92%)
Дата пометки : UTC 2010-11-24 06:40:32

Аудио
Идентификатор : 2
Формат : AAC
Формат/Информация : Advanced Audio Codec
Профиль формата : LC
Идентификатор кодека : 40
Продолжительность : 2 м. 57 с.
Вид битрейта : Переменный
Битрейт : 128 Кбит/сек
Максимальный битрейт : 154 Кбит/сек
Каналы : 2 канала
Расположение каналов : Front: L R
Частота : 44,1 КГц
Метод сжатия : С потерями
Размер потока : 2,70 Мбайт (8%)
Заголовок : (C) 2007 Google Inc. v08.13.2007.
Дата кодирования : UTC 2010-11-24 06:40:31
Дата пометки : UTC 2010-11-24 06:40:32

Общее
Полное имя : D:\Загрузка\Reflex на ELLO\Ана Бастон в группе Reflex.mp4
Формат : MPEG-4
Профиль формата : Base Media / Version 2
Идентификатор кодека : mp42
Размер файла : 23,2 Мбайт
Продолжительность : 1 м. 11 с.
Режим общего битрейта : Переменный
Общий поток : 2706 Кбит/сек
Дата кодирования : UTC 2011-05-21 16:56:34
Дата пометки : UTC 2011-05-21 16:56:34
gsst : 0
gstd : 71775
gssd : B4A7DA801HH1333312297638449
gshh : o-o.preferred.svo01s01.v1.lscache1.c.youtube.com

Видео
Идентификатор : 1
Формат : AVC
Формат/Информация : Advanced Video Codec
Профиль формата : High@L3.1
Параметр CABAC формата : Да
Параметр ReFrames формата : 1 кадр
Идентификатор кодека : avc1
Идентификатор кодека/Информация : Advanced Video Coding
Продолжительность : 1 м. 11 с.
Битрейт : 2555 Кбит/сек
Максимальный битрейт : 5088 Кбит/сек
Ширина : 1280 пикселей
Высота : 720 пикселей
Соотношение сторон : 16:9
Режим частоты кадров : Переменный
Частота кадров : 30,000 кадров/сек
Минимальная частота кадров : 29,412 кадров/сек
Максимальная частота кадров : 55,556 кадров/сек
Цветовое пространство : YUV
Субдискретизация насыщенности : 4:2:0
Битовая глубина : 8 бит
Тип развёртки : Прогрессивная
Бит/(Пиксели*Кадры) : 0.092
Размер потока : 21,9 Мбайт (94%)
Дата пометки : UTC 2011-05-21 16:56:35

Аудио
Идентификатор : 2
Формат : AAC
Формат/Информация : Advanced Audio Codec
Профиль формата : LC
Идентификатор кодека : 40
Продолжительность : 1 м. 11 с.
Вид битрейта : Переменный
Битрейт : 144 Кбит/сек
Максимальный битрейт : 215 Кбит/сек
Каналы : 2 канала
Расположение каналов : Front: L R
Частота : 44,1 КГц
Метод сжатия : С потерями
Размер потока : 1,25 Мбайт (5%)
Дата кодирования : UTC 2011-05-21 16:56:35
Дата пометки : UTC 2011-05-21 16:56:35

Общее
Полное имя : D:\Загрузка\Reflex на ELLO\Ирина Нельсон - Теплое солнце.mp4
Формат : MPEG-4
Профиль формата : Base Media / Version 2
Идентификатор кодека : mp42
Размер файла : 81,3 Мбайт
Продолжительность : 3 м. 37 с.
Режим общего битрейта : Переменный
Общий поток : 3140 Кбит/сек
Дата кодирования : UTC 2011-09-30 17:21:12
Дата пометки : UTC 2011-09-30 17:21:12
gsst : 0
gstd : 217200
gssd : B4A7D0D24HH1333309772122033
gshh : o-o.preferred.zrh04s01.v4.lscache6.c.youtube.com

Видео
Идентификатор : 1
Формат : AVC
Формат/Информация : Advanced Video Codec
Профиль формата : High@L3.1
Параметр CABAC формата : Да
Параметр ReFrames формата : 1 кадр
Параметр GOP формата : M=1, N=30
Идентификатор кодека : avc1
Идентификатор кодека/Информация : Advanced Video Coding
Продолжительность : 3 м. 37 с.
Битрейт : 2982 Кбит/сек
Максимальный битрейт : 7919 Кбит/сек
Ширина : 1280 пикселей
Высота : 720 пикселей
Соотношение сторон : 16:9
Режим частоты кадров : Переменный
Частота кадров : 30,000 кадров/сек
Минимальная частота кадров : 29,412 кадров/сек
Максимальная частота кадров : 30,303 кадров/сек
Цветовое пространство : YUV
Субдискретизация насыщенности : 4:2:0
Битовая глубина : 8 бит
Тип развёртки : Прогрессивная
Бит/(Пиксели*Кадры) : 0.108
Размер потока : 77,2 Мбайт (95%)
Дата пометки : UTC 2011-09-30 17:21:15

Аудио
Идентификатор : 2
Формат : AAC
Формат/Информация : Advanced Audio Codec
Профиль формата : LC
Идентификатор кодека : 40
Продолжительность : 3 м. 37 с.
Вид битрейта : Переменный
Битрейт : 152 Кбит/сек
Максимальный битрейт : 173 Кбит/сек
Каналы : 2 канала
Расположение каналов : Front: L R
Частота : 44,1 КГц
Метод сжатия : С потерями
Размер потока : 3,94 Мбайт (5%)
Заголовок : IsoMedia File Produced by Google, 5-11-2011
Дата кодирования : UTC 2011-09-30 17:21:15
Дата пометки : UTC 2011-09-30 17:21:15




Похожие раздачи: ВИА Гра на ELLO



pb.wtf



Скачать Reflex на ELLO через торрент https://pic1.kartinco.top/images/2000/sjicm3f556.jpg Скачать, смотреть онлайн Reflex на ELLO [2010 - 2012 г., Рор, HDRip] бесплантно в хорошем качестве Треклист [01:11] Ана Бастон в группе Reflex [01:58] Reflex - Белая метелица [02:57] Reflex и Ирина Нельсон - Селяви [03:00] ... 10 10 1
Info! Золотая раздача, скачанное не засчитывается.
Торрент: Зарегистрирован [2012-04-02 17:31] · скачан: 182 раз
Статус: √ проверено
Размер: 1.36 GB
Как cкачать? Как скачать Reflex на ELLO через торрент | UTorrent

28-11-2019 20:33  

Отключить всю рекламу на сайте

    Дорогой пользователь! Огромная просьба, поблагодарите релизера, оцените раздачу и оставьте свои комментарий, если Вы скачали Reflex на ELLO через торрент бесплатно!
    Комментировать посты могут только пользователи прошедшие не сложную регистрацию
    Показать сообщения:    

    Reflex на ELLO через торрент
    Скачать бесплатно Reflex на ELLO
    Reflex на ELLO скачать торрент
    Reflex на ELLO смотреть онлайн
    Cкачать фильм Reflex на ELLO бесплатно
    Reflex на ELLO скачать торрент в хорошем качестве
    Reflex на ELLO смотреть онлайн бесплатно в хорошем качестве


    Вы не можете начинать темы
    Вы не можете отвечать на сообщения
    Вы не можете редактировать свои сообщения
    Вы не можете удалять свои сообщения
    Вы не можете голосовать в опросах
    Вы не можете прикреплять файлы к сообщениям
    Вы можете скачивать файлы