2 сезон

iTunes

MVO

1

2 сезон

iTunes

iTunes

1 сезон

RePack

30

Ultimate

ВАЖНО

ИГРА 18+

pack

RePack

MK11
pack

Легкие деньги

RePack

jed

RePack

fifa19

RePack

RDR2

RePack

NEED FOR SPEED™ PAYBACK

4 сезон

9 сезон

Бесстыжие 9 сезон

Все сериалы

все сериалы на PB.wtf

RePack

FAR CRY 5

Anonymous, добрый вечер, мы не успеваем собрать деньги на оплату серверов за декабрь и январь, помогите нам пожалуйста в это трудное время. В качестве благодарности мы отключим Вам всю рекламу на сайте (укажите свой ник в строку Ваше имя)!

×
  
Magnet ссылка

[Lady-Sonia] Satine Spark (Drops In To Open Wide) [03.04.2012 г., Stockings, Nylons, Bra, Panties, Dildo, SATRip] pb.wtf

через торрент pb.wtf

Размер: 213 MB | Добавлен: 8 лет 9 мес. назад | Торрент скачан:44 раза
Скачать  

03-04-2012 08:25 Скачать торрент  

[font="sans-serif"][Lady-Sonia.com]
Satine Spark
Drops In To Open Wide
[03.04.2012 г.]

[font="sans-serif"]
Имя актрисы: Satine Spark
Название ролика: Drops In To Open Wide
Подсайт и сайт: Lady-Sonia.com

Год производства: 2012 г.
Жанр: Stockings, Nylons, Bra, Panties, Dildo
Продолжительность: 00:14:16

Качество: SATRip
Формат видео: MP4
Видео кодек: AVC
Аудио кодек: AAC
Видео: 25.000 fps, 1 993 Kbps, 720x404
Аудио: 92.8 Kbps, 2 channels, 48.0 KHz

Описание:
I LOVE shooting Satine as she is so timid and so nervous but she gets SO excited at the thought of being watched!
Satine runs her own business and spends a LOT of hours in the office so we decided to start the video off with this in mind…
Satine is filing and making notes around the office and then she strips off so that she can sit down and open
her lovely long legs WIDE for you and then as the camera comes in VERY close to watch she carefully she gets
VERY excited and expertly brings herself to orgasm as you watch every single second!

General
Complete name : Satine Drops In To Open Wide.mp4
Format : MPEG-4
Format profile : Base Media / Version 2
Codec ID : mp42
File size : 213 MiB
Duration : 14mn 16s
Overall bit rate mode : Variable
Overall bit rate : 2 089 Kbps
Encoded date : UTC 2012-02-10 15:59:11
Tagged date : UTC 2012-02-10 15:59:11
Writing library : AVS

Video
ID : 1
Format : AVC
Format/Info : Advanced Video Codec
Format profile : Baseline@L1.3
Format settings, CABAC : No
Format settings, ReFrames : 1 frame
Codec ID : avc1
Codec ID/Info : Advanced Video Coding
Duration : 14mn 16s
Bit rate : 1 993 Kbps
Width : 720 pixels
Height : 404 pixels
Display aspect ratio : 16:9
Frame rate mode : Constant
Frame rate : 25.000 fps
Color space : YUV
Chroma subsampling : 4:2:0
Bit depth : 8 bits
Scan type : Progressive
Bits/(Pixel*Frame) : 0.274
Stream size : 204 MiB (95%)
Language : English
Encoded date : UTC 2012-02-10 15:59:11
Tagged date : UTC 2012-02-10 15:59:11

Audio
ID : 2
Format : AAC
Format/Info : Advanced Audio Codec
Format profile : LC
Codec ID : 40
Duration : 14mn 16s
Bit rate mode : Variable
Bit rate : 92.8 Kbps
Maximum bit rate : 96.0 Kbps
Channel(s) : 2 channels
Channel positions : Front: L R
Sampling rate : 48.0 KHz
Compression mode : Lossy
Stream size : 9.47 MiB (4%)
Language : English
Encoded date : UTC 2012-02-10 15:59:11
Tagged date : UTC 2012-02-10 15:59:11
pb.wtf



pack Скачать через торрент http://i32.fastpic.ru/big/2012/0403/9c/485af523f6930c4f8daf10b5b4fbf29c.jpg Скачать фильм [Lady-Sonia] Satine Spark через торрент бесплантно в хорошем качестве Описание:I LOVE shooting Satine as she is so timid and so nervous but she gets SO excited at the thought of being watched!Satine runs her ... 4 10 4
Info! Золотая раздача, скачанное не засчитывается.
Торрент: Зарегистрирован [2012-04-03 08:25] · скачан: 44 раз
Статус: √ проверено
Размер: 213 MB
Как cкачать? Как скачать через торрент | UTorrent

28-11-2019 20:33  

Отключить всю рекламу на сайте

    Дорогой пользователь! Огромная просьба, поблагодарите релизера, оцените раздачу и оставьте свои комментарий, если Вы скачали через торрент бесплатно! Внесите свою лепту в развитие PiratBit!
    Комментировать посты могут только пользователи прошедшие не сложную регистрацию
    Показать сообщения:    

    через торрент
    Скачать бесплатно
    скачать торрент
    смотреть онлайн
    Cкачать фильм бесплатно
    скачать торрент в хорошем качестве
    смотреть онлайн бесплатно в хорошем качестве


    Вы не можете начинать темы
    Вы не можете отвечать на сообщения
    Вы не можете редактировать свои сообщения
    Вы не можете удалять свои сообщения
    Вы не можете голосовать в опросах
    Вы не можете прикреплять файлы к сообщениям
    Вы можете скачивать файлы